  0
SECTION
  2
HEADER
  9
$ACADVER
  1
AC1015
  9
$ACADMAINTVER
 70
     6
  9
$DWGCODEPAGE
  3
ANSI_1252
  9
$INSBASE
 10
0.0
 20
0.0
 30
0.0
  9
$EXTMIN
 10
19.49999999999996
 20
19.4999999999999
 30
0.0
  9
$EXTMAX
 10
574.5
 20
420.5
 30
0.0
  9
$LIMMIN
 10
0.0
 20
0.0
  9
$LIMMAX
 10
12.0
 20
9.0
  9
$ORTHOMODE
 70
     0
  9
$REGENMODE
 70
     1
  9
$FILLMODE
 70
     1
  9
$QTEXTMODE
 70
     0
  9
$MIRRTEXT
 70
     1
  9
$LTSCALE
 40
1.0
  9
$ATTMODE
 70
     1
  9
$TEXTSIZE
 40
0.2
  9
$TRACEWID
 40
0.05
  9
$TEXTSTYLE
  7
Standard
  9
$CLAYER
  8
0
  9
$CELTYPE
  6
ByLayer
  9
$CECOLOR
 62
   256
  9
$CELTSCALE
 40
1.0
  9
$DISPSILH
 70
     0
  9
$DIMSCALE
 40
1.0
  9
$DIMASZ
 40
0.18
  9
$DIMEXO
 40
0.0625
  9
$DIMDLI
 40
0.38
  9
$DIMRND
 40
0.0
  9
$DIMDLE
 40
0.0
  9
$DIMEXE
 40
0.18
  9
$DIMTP
 40
0.0
  9
$DIMTM
 40
0.0
  9
$DIMTXT
 40
0.18
  9
$DIMCEN
 40
0.09
  9
$DIMTSZ
 40
0.0
  9
$DIMTOL
 70
     0
  9
$DIMLIM
 70
     0
  9
$DIMTIH
 70
     1
  9
$DIMTOH
 70
     1
  9
$DIMSE1
 70
     0
  9
$DIMSE2
 70
     0
  9
$DIMTAD
 70
     0
  9
$DIMZIN
 70
     0
  9
$DIMBLK
  1

  9
$DIMASO
 70
     1
  9
$DIMSHO
 70
     1
  9
$DIMPOST
  1

  9
$DIMAPOST
  1

  9
$DIMALT
 70
     0
  9
$DIMALTD
 70
     2
  9
$DIMALTF
 40
25.4
  9
$DIMLFAC
 40
1.0
  9
$DIMTOFL
 70
     0
  9
$DIMTVP
 40
0.0
  9
$DIMTIX
 70
     0
  9
$DIMSOXD
 70
     0
  9
$DIMSAH
 70
     0
  9
$DIMBLK1
  1

  9
$DIMBLK2
  1

  9
$DIMSTYLE
  2
Standard
  9
$DIMCLRD
 70
     0
  9
$DIMCLRE
 70
     0
  9
$DIMCLRT
 70
     0
  9
$DIMTFAC
 40
1.0
  9
$DIMGAP
 40
0.09
  9
$DIMJUST
 70
     0
  9
$DIMSD1
 70
     0
  9
$DIMSD2
 70
     0
  9
$DIMTOLJ
 70
     1
  9
$DIMTZIN
 70
     0
  9
$DIMALTZ
 70
     0
  9
$DIMALTTZ
 70
     0
  9
$DIMUPT
 70
     0
  9
$DIMDEC
 70
     4
  9
$DIMTDEC
 70
     4
  9
$DIMALTU
 70
     2
  9
$DIMALTTD
 70
     2
  9
$DIMTXSTY
  7
Standard
  9
$DIMAUNIT
 70
     0
  9
$DIMADEC
 70
     0
  9
$DIMALTRND
 40
0.0
  9
$DIMAZIN
 70
     0
  9
$DIMDSEP
 70
    46
  9
$DIMATFIT
 70
     3
  9
$DIMFRAC
 70
     0
  9
$DIMLDRBLK
  1

  9
$DIMLUNIT
 70
     2
  9
$DIMLWD
 70
    -2
  9
$DIMLWE
 70
    -2
  9
$DIMTMOVE
 70
     0
  9
$LUNITS
 70
     2
  9
$LUPREC
 70
     4
  9
$SKETCHINC
 40
0.1
  9
$FILLETRAD
 40
0.5
  9
$AUNITS
 70
     0
  9
$AUPREC
 70
     0
  9
$MENU
  1
.
  9
$ELEVATION
 40
0.0
  9
$PELEVATION
 40
0.0
  9
$THICKNESS
 40
0.0
  9
$LIMCHECK
 70
     0
  9
$CHAMFERA
 40
0.5
  9
$CHAMFERB
 40
0.5
  9
$CHAMFERC
 40
1.0
  9
$CHAMFERD
 40
0.0
  9
$SKPOLY
 70
     0
  9
$TDCREATE
 40
2454986.451337245
  9
$TDUCREATE
 40
2454986.368003912
  9
$TDUPDATE
 40
2454986.451337257
  9
$TDUUPDATE
 40
2454986.368003923
  9
$TDINDWG
 40
0.0000000116
  9
$TDUSRTIMER
 40
0.0000000116
  9
$USRTIMER
 70
     1
  9
$ANGBASE
 50
0.0
  9
$ANGDIR
 70
     0
  9
$PDMODE
 70
     0
  9
$PDSIZE
 40
0.0
  9
$PLINEWID
 40
0.0
  9
$SPLFRAME
 70
     0
  9
$SPLINETYPE
 70
     6
  9
$SPLINESEGS
 70
     8
  9
$HANDSEED
  5
3C5
  9
$SURFTAB1
 70
     6
  9
$SURFTAB2
 70
     6
  9
$SURFTYPE
 70
     6
  9
$SURFU
 70
     6
  9
$SURFV
 70
     6
  9
$UCSBASE
  2

  9
$UCSNAME
  2

  9
$UCSORG
 10
0.0
 20
0.0
 30
0.0
  9
$UCSXDIR
 10
1.0
 20
0.0
 30
0.0
  9
$UCSYDIR
 10
0.0
 20
1.0
 30
0.0
  9
$UCSORTHOREF
  2

  9
$UCSORTHOVIEW
 70
     0
  9
$UCSORGTOP
 10
0.0
 20
0.0
 30
0.0
  9
$UCSORGBOTTOM
 10
0.0
 20
0.0
 30
0.0
  9
$UCSORGLEFT
 10
0.0
 20
0.0
 30
0.0
  9
$UCSORGRIGHT
 10
0.0
 20
0.0
 30
0.0
  9
$UCSORGFRONT
 10
0.0
 20
0.0
 30
0.0
  9
$UCSORGBACK
 10
0.0
 20
0.0
 30
0.0
  9
$PUCSBASE
  2

  9
$PUCSNAME
  2

  9
$PUCSORG
 10
0.0
 20
0.0
 30
0.0
  9
$PUCSXDIR
 10
1.0
 20
0.0
 30
0.0
  9
$PUCSYDIR
 10
0.0
 20
1.0
 30
0.0
  9
$PUCSORTHOREF
  2

  9
$PUCSORTHOVIEW
 70
     0
  9
$PUCSORGTOP
 10
0.0
 20
0.0
 30
0.0
  9
$PUCSORGBOTTOM
 10
0.0
 20
0.0
 30
0.0
  9
$PUCSORGLEFT
 10
0.0
 20
0.0
 30
0.0
  9
$PUCSORGRIGHT
 10
0.0
 20
0.0
 30
0.0
  9
$PUCSORGFRONT
 10
0.0
 20
0.0
 30
0.0
  9
$PUCSORGBACK
 10
0.0
 20
0.0
 30
0.0
  9
$USERI1
 70
     0
  9
$USERI2
 70
     0
  9
$USERI3
 70
     0
  9
$USERI4
 70
     0
  9
$USERI5
 70
     0
  9
$USERR1
 40
16.0
  9
$USERR2
 40
0.0
  9
$USERR3
 40
0.0
  9
$USERR4
 40
0.0
  9
$USERR5
 40
0.0
  9
$WORLDVIEW
 70
     1
  9
$SHADEDGE
 70
     3
  9
$SHADEDIF
 70
    70
  9
$TILEMODE
 70
     1
  9
$MAXACTVP
 70
    64
  9
$PINSBASE
 10
0.0
 20
0.0
 30
0.0
  9
$PLIMCHECK
 70
     0
  9
$PEXTMIN
 10
1.00000000000000E+20
 20
1.00000000000000E+20
 30
1.00000000000000E+20
  9
$PEXTMAX
 10
-1.00000000000000E+20
 20
-1.00000000000000E+20
 30
-1.00000000000000E+20
  9
$PLIMMIN
 10
0.0
 20
0.0
  9
$PLIMMAX
 10
12.0
 20
9.0
  9
$UNITMODE
 70
     0
  9
$VISRETAIN
 70
     1
  9
$PLINEGEN
 70
     0
  9
$PSLTSCALE
 70
     1
  9
$TREEDEPTH
 70
  3020
  9
$CMLSTYLE
  2
Standard
  9
$CMLJUST
 70
     0
  9
$CMLSCALE
 40
1.0
  9
$PROXYGRAPHICS
 70
     1
  9
$MEASUREMENT
 70
     1
  9
$CELWEIGHT
370
    -1
  9
$ENDCAPS
280
     0
  9
$JOINSTYLE
280
     0
  9
$LWDISPLAY
290
     0
  9
$INSUNITS
 70
     1
  9
$HYPERLINKBASE
  1

  9
$STYLESHEET
  1

  9
$XEDIT
290
     1
  9
$CEPSNTYPE
380
     0
  9
$PSTYLEMODE
290
     1
  9
$FINGERPRINTGUID
  2
{6DEE2458-C94E-4309-B7C8-128263257E34}
  9
$VERSIONGUID
  2
{FAEB1C32-E019-11D5-929B-00C0DF256EC4}
  9
$EXTNAMES
290
     1
  9
$PSVPSCALE
 40
0.0
  9
$OLESTARTUP
290
     0
  0
ENDSEC
  0
SECTION
  2
CLASSES
  0
CLASS
  1
ACDBDICTIONARYWDFLT
  2
AcDbDictionaryWithDefault
  3
ObjectDBX Classes
 90
        0
280
     0
281
     0
  0
CLASS
  1
VISUALSTYLE
  2
AcDbVisualStyle
  3
ObjectDBX Classes
 90
     4095
280
     0
281
     0
  0
CLASS
  1

  2
exOdDbPolyline
  3

 90
        0
280
     0
281
     1
  0
CLASS
  1

  2
exOdDbSpline
  3

 90
        0
280
     0
281
     1
  0
CLASS
  1
ACDBPLACEHOLDER
  2
AcDbPlaceHolder
  3
ObjectDBX Classes
 90
        0
280
     0
281
     0
  0
CLASS
  1
LAYOUT
  2
AcDbLayout
  3
ObjectDBX Classes
 90
        0
280
     0
281
     0
  0
ENDSEC
  0
SECTION
  2
TABLES
  0
TABLE
  2
VPORT
  5
8
330
0
100
AcDbSymbolTable
 70
     1
  0
VPORT
  5
29
330
8
100
AcDbSymbolTableRecord
100
AcDbViewportTableRecord
  2
*Active
 70
     0
 10
0.0
 20
0.0
 11
1.0
 21
1.0
 12
297.0
 22
219.9999999999999
 13
0.0
 23
0.0
 14
0.5
 24
0.5
 15
0.5
 25
0.5
 16
0.0
 26
0.0
 36
1.0
 17
0.0
 27
0.0
 37
0.0
 40
441.1000000000001
 41
1.60267857142857
 42
50.0
 43
0.0
 44
0.0
 50
0.0
 51
0.0
 71
     0
 72
   100
 73
     1
 74
     3
 75
     0
 76
     0
 77
     0
 78
     0
281
     0
 65
     1
110
0.0
120
0.0
130
0.0
111
1.0
121
0.0
131
0.0
112
0.0
122
1.0
132
0.0
 79
     0
146
0.0
  0
ENDTAB
  0
TABLE
  2
LTYPE
  5
5
330
0
100
AcDbSymbolTable
 70
     9
  0
LTYPE
  5
14
330
5
100
AcDbSymbolTableRecord
100
AcDbLinetypeTableRecord
  2
ByBlock
 70
     0
  3

 72
    65
 73
     0
 40
0.0
  0
LTYPE
  5
15
330
5
100
AcDbSymbolTableRecord
100
AcDbLinetypeTableRecord
  2
ByLayer
 70
     0
  3

 72
    65
 73
     0
 40
0.0
  0
LTYPE
  5
16
330
5
100
AcDbSymbolTableRecord
100
AcDbLinetypeTableRecord
  2
Continuous
 70
     0
  3
Solid line
 72
    65
 73
     0
 40
0.0
  0
LTYPE
  5
3B
330
5
100
AcDbSymbolTableRecord
100
AcDbLinetypeTableRecord
  2
DASHED
 70
     0
  3
Dashed
 72
    65
 73
     2
 40
15.0
 49
7.0
 74
     0
 49
-8.0
 74
     0
  0
LTYPE
  5
3C
330
5
100
AcDbSymbolTableRecord
100
AcDbLinetypeTableRecord
  2
DOTTED
 70
     0
  3
Dotted
 72
    65
 73
     2
 40
1.0
 49
0.0
 74
     0
 49
-1.0
 74
     0
  0
LTYPE
  5
3D
330
5
100
AcDbSymbolTableRecord
100
AcDbLinetypeTableRecord
  2
DOT_CENTER
 70
     0
  3
Dot_Center
 72
    65
 73
     4
 40
14.0
 49
12.0
 74
     0
 49
-1.0
 74
     0
 49
0.0
 74
     0
 49
-1.0
 74
     0
  0
LTYPE
  5
3E
330
5
100
AcDbSymbolTableRecord
100
AcDbLinetypeTableRecord
  2
LONG_DASHED
 70
     0
  3
Long_Dashed
 72
    65
 73
     2
 40
15.0
 49
10.0
 74
     0
 49
-5.0
 74
     0
  0
LTYPE
  5
3F
330
5
100
AcDbSymbolTableRecord
100
AcDbLinetypeTableRecord
  2
DASH_CENTER
 70
     0
  3
Dash_Center
 72
    65
 73
     4
 40
14.0
 49
11.0
 74
     0
 49
-1.0
 74
     0
 49
1.0
 74
     0
 49
-1.0
 74
     0
  0
LTYPE
  5
40
330
5
100
AcDbSymbolTableRecord
100
AcDbLinetypeTableRecord
  2
PHANTOM
 70
     0
  3
Phantom
 72
    65
 73
     6
 40
13.0
 49
10.0
 74
     0
 49
-1.0
 74
     0
 49
0.0
 74
     0
 49
-1.0
 74
     0
 49
0.0
 74
     0
 49
-1.0
 74
     0
  0
LTYPE
  5
41
330
5
100
AcDbSymbolTableRecord
100
AcDbLinetypeTableRecord
  2
CENTER_DASH_DASH
 70
     0
  3
Center_Dash_Dash
 72
    65
 73
     6
 40
14.0
 49
9.0
 74
     0
 49
-1.0
 74
     0
 49
1.0
 74
     0
 49
-1.0
 74
     0
 49
1.0
 74
     0
 49
-1.0
 74
     0
  0
LTYPE
  5
42
330
5
100
AcDbSymbolTableRecord
100
AcDbLinetypeTableRecord
  2
CHAIN
 70
     0
  3
CHAIN
 72
    65
 73
     4
 40
4.0
 49
1.0
 74
     0
 49
-1.0
 74
     0
 49
1.0
 74
     0
 49
-1.0
 74
     0
  0
ENDTAB
  0
TABLE
  2
LAYER
  5
2
330
0
100
AcDbSymbolTable
 70
    10
  0
LAYER
  5
10
330
2
100
AcDbSymbolTableRecord
100
AcDbLayerTableRecord
  2
0
 70
     0
 62
     7
  6
Continuous
370
    -3
390
F
  0
LAYER
  5
43
330
2
100
AcDbSymbolTableRecord
100
AcDbLayerTableRecord
  2
Bemaßungen_TC_020513_DIN_
 70
     0
 62
     7
  6
Continuous
370
    -3
390
F
  0
LAYER
  5
44
330
2
100
AcDbSymbolTableRecord
100
AcDbLayerTableRecord
  2
Mittellinie_TC_020513_DIN_
 70
     0
 62
     7
  6
Continuous
370
    -3
390
F
  0
LAYER
  5
45
330
2
100
AcDbSymbolTableRecord
100
AcDbLayerTableRecord
  2
Mittelpunktmarkierung_TC_020513_DIN_
 70
     0
 62
     7
  6
Continuous
370
    -3
390
F
  0
LAYER
  5
46
330
2
100
AcDbSymbolTableRecord
100
AcDbLayerTableRecord
  2
Schraffur
 70
     0
 62
     7
  6
Continuous
370
    -3
390
F
  0
LAYER
  5
47
330
2
100
AcDbSymbolTableRecord
100
AcDbLayerTableRecord
  2
Sichtbare_Kanten_TC_020513_DIN_
 70
     0
 62
     7
  6
Continuous
370
    -3
390
F
  0
LAYER
  5
48
330
2
100
AcDbSymbolTableRecord
100
AcDbLayerTableRecord
  2
Skizziergeometrie_ISO_
 70
     0
 62
     7
  6
Continuous
370
    -3
390
F
  0
LAYER
  5
49
330
2
100
AcDbSymbolTableRecord
100
AcDbLayerTableRecord
  2
Skizziergeometrie_TC_020513_DIN_
 70
     0
 62
     7
  6
Continuous
370
    -3
390
F
  0
LAYER
  5
4A
330
2
100
AcDbSymbolTableRecord
100
AcDbLayerTableRecord
  2
Symbole_ISO_
 70
     0
 62
     7
  6
Continuous
370
    -3
390
F
  0
LAYER
  5
4B
330
2
100
AcDbSymbolTableRecord
100
AcDbLayerTableRecord
  2
Symbole_TC_020513_DIN_
 70
     0
 62
     7
  6
Continuous
370
    -3
390
F
  0
ENDTAB
  0
TABLE
  2
STYLE
  5
3
330
0
100
AcDbSymbolTable
 70
     7
  0
STYLE
  5
11
330
3
100
AcDbSymbolTableRecord
100
AcDbTextStyleTableRecord
  2
Standard
 70
     0
 40
0.0
 41
1.0
 50
0.0
 71
     0
 42
0.2
  3
txt
  4

  0
STYLE
  5
6A
330
3
100
AcDbSymbolTableRecord
100
AcDbTextStyleTableRecord
  2
CONVERTER_11
 70
     0
 40
0.0
 41
0.75
 50
0.0
 71
     0
 42
0.2
  3
txt.shx
  4

  0
STYLE
  5
104
330
3
100
AcDbSymbolTableRecord
100
AcDbTextStyleTableRecord
  2
CONVERTER_12
 70
     0
 40
0.0
 41
0.59999996423721
 50
0.0
 71
     0
 42
0.2
  3
txt.shx
  4

  0
STYLE
  5
106
330
3
100
AcDbSymbolTableRecord
100
AcDbTextStyleTableRecord
  2
CONVERTER_13
 70
     0
 40
0.0
 41
0.67499998211861
 50
0.0
 71
     0
 42
0.2
  3
txt.shx
  4

  0
STYLE
  5
357
330
3
100
AcDbSymbolTableRecord
100
AcDbTextStyleTableRecord
  2
CONVERTER_14
 70
     0
 40
0.0
 41
0.74999995529652
 50
0.0
 71
     0
 42
0.2
  3
ARIAL.TTF
  4

  0
STYLE
  5
359
330
3
100
AcDbSymbolTableRecord
100
AcDbTextStyleTableRecord
  2
CONVERTER_15
 70
     0
 40
0.0
 41
0.56249998509884
 50
0.0
 71
     0
 42
0.2
  3
ARIAL.TTF
  4

  0
STYLE
  5
35B
330
3
100
AcDbSymbolTableRecord
100
AcDbTextStyleTableRecord
  2
CONVERTER_16
 70
     0
 40
0.0
 41
0.625
 50
0.0
 71
     0
 42
0.2
  3
ARIAL.TTF
  4

  0
ENDTAB
  0
TABLE
  2
VIEW
  5
6
330
0
100
AcDbSymbolTable
 70
     0
  0
ENDTAB
  0
TABLE
  2
UCS
  5
7
330
0
100
AcDbSymbolTable
 70
     0
  0
ENDTAB
  0
TABLE
  2
APPID
  5
9
330
0
100
AcDbSymbolTable
 70
     1
  0
APPID
  5
12
330
9
100
AcDbSymbolTableRecord
100
AcDbRegAppTableRecord
  2
ACAD
 70
     0
  0
ENDTAB
  0
TABLE
  2
DIMSTYLE
  5
A
330
0
100
AcDbSymbolTable
 70
    10
100
AcDbDimStyleTable
  0
DIMSTYLE
105
27
330
A
100
AcDbSymbolTableRecord
100
AcDbDimStyleTableRecord
  2
Standard
 70
     0
340
11
  0
DIMSTYLE
105
367
102
{ACAD_REACTORS
330
368
102
}
330
A
100
AcDbSymbolTableRecord
100
AcDbDimStyleTableRecord
  2
ME10_DIM_10
 70
     0
 41
5.0
 42
2.0
 44
4.0
 73
     0
 74
     0
 77
     1
 78
    12
140
7.0
147
0.8
172
     1
173
     1
176
     7
177
     7
178
     7
271
     2
340
35B
  0
DIMSTYLE
105
372
102
{ACAD_REACTORS
330
373
102
}
330
A
100
AcDbSymbolTableRecord
100
AcDbDimStyleTableRecord
  2
ME10_DIM_11
 70
     0
 41
5.0
 42
2.0
 44
4.0
 73
     0
 74
     0
 77
     1
 78
    12
140
7.0
147
0.8
172
     1
173
     1
176
     7
177
     7
178
     7
271
     2
340
35B
  0
DIMSTYLE
105
37D
102
{ACAD_REACTORS
330
37E
102
}
330
A
100
AcDbSymbolTableRecord
100
AcDbDimStyleTableRecord
  2
ME10_DIM_12
 70
     0
 41
5.0
 42
2.0
 44
4.0
 73
     0
 74
     0
 77
     1
 78
    12
140
7.0
147
0.8
172
     1
173
     1
176
     7
177
     7
178
     7
271
     2
340
35B
  0
DIMSTYLE
105
388
102
{ACAD_REACTORS
330
389
102
}
330
A
100
AcDbSymbolTableRecord
100
AcDbDimStyleTableRecord
  2
ME10_DIM_13
 70
     0
 41
5.0
 42
2.0
 44
4.0
 73
     0
 74
     0
 77
     1
 78
    12
140
7.0
147
0.8
172
     1
173
     1
176
     7
177
     7
178
     7
271
     2
340
35B
  0
DIMSTYLE
105
393
102
{ACAD_REACTORS
330
394
102
}
330
A
100
AcDbSymbolTableRecord
100
AcDbDimStyleTableRecord
  2
ME10_DIM_14
 70
     0
 41
5.0
 42
2.0
 44
4.0
 73
     0
 74
     0
 77
     1
 78
    12
140
7.0
147
0.8
172
     1
173
     1
176
     7
177
     7
178
     7
271
     2
340
35B
  0
DIMSTYLE
105
39E
102
{ACAD_REACTORS
330
39F
102
}
330
A
100
AcDbSymbolTableRecord
100
AcDbDimStyleTableRecord
  2
ME10_DIM_15
 70
     0
 41
5.0
 42
2.0
 44
4.0
 73
     0
 74
     0
 77
     1
 78
    12
140
7.0
147
0.8
172
     1
173
     1
176
     7
177
     7
178
     7
271
     2
340
35B
  0
DIMSTYLE
105
3AB
102
{ACAD_REACTORS
330
3AC
102
}
330
A
100
AcDbSymbolTableRecord
100
AcDbDimStyleTableRecord
  2
ME10_DIM_16
 70
     0
 41
5.0
 42
2.0
 44
4.0
 73
     0
 74
     0
 77
     1
 78
    12
140
7.0
147
0.8
172
     1
173
     1
176
     7
177
     7
178
     7
271
     2
340
35B
  0
DIMSTYLE
105
3B6
102
{ACAD_REACTORS
330
3B7
102
}
330
A
100
AcDbSymbolTableRecord
100
AcDbDimStyleTableRecord
  2
ME10_DIM_17
 70
     0
 41
5.0
 42
2.0
 44
4.0
 73
     0
 74
     0
 77
     1
 78
    12
140
7.0
147
0.8
172
     1
173
     1
176
     7
177
     7
178
     7
271
     2
340
35B
  0
DIMSTYLE
105
3C1
102
{ACAD_REACTORS
330
3C2
102
}
330
A
100
AcDbSymbolTableRecord
100
AcDbDimStyleTableRecord
  2
ME10_DIM_18
 70
     0
 41
5.0
 42
2.0
 44
4.0
 73
     0
 74
     0
 77
     1
 78
    12
140
7.0
147
0.8
172
     1
173
     1
176
     7
177
     7
178
     7
271
     2
340
35B
  0
ENDTAB
  0
TABLE
  2
BLOCK_RECORD
  5
1
330
0
100
AcDbSymbolTable
 70
    13
  0
BLOCK_RECORD
  5
1F
330
1
100
AcDbSymbolTableRecord
100
AcDbBlockTableRecord
  2
*Model_Space
340
22
  0
BLOCK_RECORD
  5
1B
330
1
100
AcDbSymbolTableRecord
100
AcDbBlockTableRecord
  2
*Paper_Space
340
1E
  0
BLOCK_RECORD
  5
23
330
1
100
AcDbSymbolTableRecord
100
AcDbBlockTableRecord
  2
*Paper_Space0
340
26
  0
BLOCK_RECORD
  5
4C
330
1
100
AcDbSymbolTableRecord
100
AcDbBlockTableRecord
  2
_D19
340
0
102
{BLKREFS
331
55
102
}
  0
BLOCK_RECORD
  5
4F
330
1
100
AcDbSymbolTableRecord
100
AcDbBlockTableRecord
  2
Schriftfelder_Ilme
340
0
102
{BLKREFS
331
56
102
}
  0
BLOCK_RECORD
  5
52
330
1
100
AcDbSymbolTableRecord
100
AcDbBlockTableRecord
  2
Ränder_Ilme_Rahmen_A4_quer
340
0
102
{BLKREFS
331
57
102
}
  0
BLOCK_RECORD
  5
35E
330
1
100
AcDbSymbolTableRecord
100
AcDbBlockTableRecord
  2
*D4
340
0
  0
BLOCK_RECORD
  5
369
330
1
100
AcDbSymbolTableRecord
100
AcDbBlockTableRecord
  2
*D5
340
0
  0
BLOCK_RECORD
  5
374
330
1
100
AcDbSymbolTableRecord
100
AcDbBlockTableRecord
  2
*D6
340
0
  0
BLOCK_RECORD
  5
37F
330
1
100
AcDbSymbolTableRecord
100
AcDbBlockTableRecord
  2
*D7
340
0
  0
BLOCK_RECORD
  5
38A
330
1
100
AcDbSymbolTableRecord
100
AcDbBlockTableRecord
  2
*D8
340
0
  0
BLOCK_RECORD
  5
395
330
1
100
AcDbSymbolTableRecord
100
AcDbBlockTableRecord
  2
*D9
340
0
  0
BLOCK_RECORD
  5
3A0
330
1
100
AcDbSymbolTableRecord
100
AcDbBlockTableRecord
  2
*D10
340
0
  0
BLOCK_RECORD
  5
3AD
330
1
100
AcDbSymbolTableRecord
100
AcDbBlockTableRecord
  2
*D11
340
0
  0
BLOCK_RECORD
  5
3B8
330
1
100
AcDbSymbolTableRecord
100
AcDbBlockTableRecord
  2
*D12
340
0
  0
ENDTAB
  0
ENDSEC
  0
SECTION
  2
BLOCKS
  0
BLOCK
  5
20
330
1F
100
AcDbEntity
  8
0
100
AcDbBlockBegin
  2
*Model_Space
 70
     0
 10
0.0
 20
0.0
 30
0.0
  3
*Model_Space
  1

  0
ENDBLK
  5
21
330
1F
100
AcDbEntity
  8
0
100
AcDbBlockEnd
  0
BLOCK
  5
1C
330
1B
100
AcDbEntity
 67
     1
  8
0
100
AcDbBlockBegin
  2
*Paper_Space
 70
     0
 10
0.0
 20
0.0
 30
0.0
  3
*Paper_Space
  1

  0
ENDBLK
  5
1D
330
1B
100
AcDbEntity
 67
     1
  8
0
100
AcDbBlockEnd
  0
BLOCK
  5
24
330
23
100
AcDbEntity
  8
0
100
AcDbBlockBegin
  2
*Paper_Space0
 70
     0
 10
0.0
 20
0.0
 30
0.0
  3
*Paper_Space0
  1

  0
ENDBLK
  5
25
330
23
100
AcDbEntity
  8
0
100
AcDbBlockEnd
  0
BLOCK
  5
4D
330
4C
100
AcDbEntity
  8
0
100
AcDbBlockBegin
  2
_D19
 70
     0
 10
0.0
 20
0.0
 30
0.0
  3
_D19
  1

  0
LWPOLYLINE
  5
61
330
4C
100
AcDbEntity
  8
Bemaßungen_TC_020513_DIN_
  6
Continuous
 62
     7
100
AcDbPolyline
 90
        2
 70
     0
 43
0.25
 10
117.481338927083
 20
295.836804779765
 10
113.15121190816
 20
293.336804779766
  0
LWPOLYLINE
  5
62
330
4C
100
AcDbEntity
  8
Bemaßungen_TC_020513_DIN_
  6
Continuous
 62
     7
100
AcDbPolyline
 90
        2
 70
     0
 43
0.25
 10
130.038707281958
 20
303.086804779764
 10
155.590836252122
 20
317.839333319052
  0
LWPOLYLINE
  5
63
330
4C
100
AcDbEntity
  8
Bemaßungen_TC_020513_DIN_
  6
Continuous
 62
     7
100
AcDbPolyline
 90
        2
 70
     0
 43
0.25
 10
121.811465946005
 20
298.336804779765
 10
125.708580263036
 20
300.586804779764
  0
LWPOLYLINE
  5
64
102
{ACAD_REACTORS
330
6C
330
6C
102
}
330
4C
100
AcDbEntity
  8
Bemaßungen_TC_020513_DIN_
  6
Continuous
 62
     7
100
AcDbPolyline
 90
        2
 70
     0
 43
0.25
 10
117.898005593749
 20
295.115116943278
 10
117.064672260416
 20
296.558492616252
  0
LWPOLYLINE
  5
65
102
{ACAD_REACTORS
330
6C
330
6C
102
}
330
4C
100
AcDbEntity
  8
Bemaßungen_TC_020513_DIN_
  6
Continuous
 62
     7
100
AcDbPolyline
 90
        2
 70
     0
 43
0.25
 10
117.064672260416
 20
296.558492616252
 10
121.811465946005
 20
298.336804779765
  0
LWPOLYLINE
  5
66
102
{ACAD_REACTORS
330
6C
330
6C
102
}
330
4C
100
AcDbEntity
  8
Bemaßungen_TC_020513_DIN_
  6
Continuous
 62
     7
100
AcDbPolyline
 90
        2
 70
     0
 43
0.25
 10
121.811465946005
 20
298.336804779765
 10
117.898005593749
 20
295.115116943278
  0
LWPOLYLINE
  5
67
102
{ACAD_REACTORS
330
6D
330
6D
102
}
330
4C
100
AcDbEntity
  8
Bemaßungen_TC_020513_DIN_
  6
Continuous
 62
     7
100
AcDbPolyline
 90
        2
 70
     0
 43
0.25
 10
130.455373948625
 20
302.365116943277
 10
129.622040615292
 20
303.808492616251
  0
LWPOLYLINE
  5
68
102
{ACAD_REACTORS
330
6D
330
6D
102
}
330
4C
100
AcDbEntity
  8
Bemaßungen_TC_020513_DIN_
  6
Continuous
 62
     7
100
AcDbPolyline
 90
        2
 70
     0
 43
0.25
 10
129.622040615292
 20
303.808492616251
 10
125.708580263036
 20
300.586804779764
  0
LWPOLYLINE
  5
69
102
{ACAD_REACTORS
330
6D
330
6D
102
}
330
4C
100
AcDbEntity
  8
Bemaßungen_TC_020513_DIN_
  6
Continuous
 62
     7
100
AcDbPolyline
 90
        2
 70
     0
 43
0.25
 10
125.708580263036
 20
300.586804779764
 10
130.455373948625
 20
302.365116943277
  0
MTEXT
  5
6B
330
4C
100
AcDbEntity
  8
Bemaßungen_TC_020513_DIN_
 62
     7
100
AcDbMText
 10
131.40600719662
 20
315.703310845021
 30
0.0
 40
7.0
 41
0.0
 71
     1
 72
     1
  1
{\Fgdt;n}4,5
  7
CONVERTER_11
 11
0.8660254037844936
 21
0.4999999999999049
 31
0.0
 73
     1
 44
1.0
  0
HATCH
  5
6C
330
4C
100
AcDbEntity
  8
Bemaßungen_TC_020513_DIN_
  6
Continuous
 62
     7
100
AcDbHatch
 10
0.0
 20
0.0
 30
0.0
210
0.0
220
0.0
230
1.0
  2
SOLID
 70
     1
 71
     1
 91
        1
 92
        1
 93
        3
 72
     1
 10
117.898005593749
 20
295.115116943278
 11
117.064672260416
 21
296.558492616252
 72
     1
 10
117.064672260416
 20
296.558492616252
 11
121.811465946005
 21
298.336804779765
 72
     1
 10
121.811465946005
 20
298.336804779765
 11
117.898005593749
 21
295.115116943278
 97
        3
330
64
330
65
330
66
 75
     0
 76
     1
 98
        1
 10
0.0
 20
0.0
  0
HATCH
  5
6D
330
4C
100
AcDbEntity
  8
Bemaßungen_TC_020513_DIN_
  6
Continuous
 62
     7
100
AcDbHatch
 10
0.0
 20
0.0
 30
0.0
210
0.0
220
0.0
230
1.0
  2
SOLID
 70
     1
 71
     1
 91
        1
 92
        1
 93
        3
 72
     1
 10
130.455373948625
 20
302.365116943277
 11
129.622040615292
 21
303.808492616251
 72
     1
 10
129.622040615292
 20
303.808492616251
 11
125.708580263036
 21
300.586804779764
 72
     1
 10
125.708580263036
 20
300.586804779764
 11
130.455373948625
 21
302.365116943277
 97
        3
330
67
330
68
330
69
 75
     0
 76
     1
 98
        1
 10
0.0
 20
0.0
  0
ENDBLK
  5
4E
330
4C
100
AcDbEntity
  8
0
100
AcDbBlockEnd
  0
BLOCK
  5
50
330
4F
100
AcDbEntity
  8
0
100
AcDbBlockBegin
  2
Schriftfelder_Ilme
 70
     0
 10
0.0
 20
0.0
 30
0.0
  3
Schriftfelder_Ilme
  1

  0
LINE
  5
6E
102
{ACAD_REACTORS
330
10A
330
10A
102
}
330
4F
100
AcDbEntity
  8
0
  6
Continuous
 62
     7
100
AcDbLine
 10
192.857882489926
 20
15.5586421730067
 30
0.0
 11
191.48842975933
 21
14.7685732899702
 31
0.0
  0
LINE
  5
6F
102
{ACAD_REACTORS
330
10A
330
10A
102
}
330
4F
100
AcDbEntity
  8
0
  6
Continuous
 62
     7
100
AcDbLine
 10
190.988522274833
 20
15.0573018186531
 30
0.0
 11
190.988522274833
 21
19.9439783665993
 31
0.0
  0
LINE
  5
70
102
{ACAD_REACTORS
330
10A
330
10A
102
}
330
4F
100
AcDbEntity
  8
0
  6
Continuous
 62
     7
100
AcDbLine
 10
191.48842975933
 20
20.2327068952822
 30
0.0
 11
192.857882489926
 21
19.4426380122457
 31
0.0
  0
LINE
  5
71
102
{ACAD_REACTORS
330
10A
330
10A
102
}
330
4F
100
AcDbEntity
  8
0
  6
Continuous
 62
     7
100
AcDbLine
 10
192.5247341876
 20
18.8651809548799
 30
0.0
 11
191.6551889415
 21
19.3668416737836
 31
0.0
  0
LINE
  5
72
102
{ACAD_REACTORS
330
10A
330
10A
102
}
330
4F
100
AcDbEntity
  8
0
  6
Continuous
 62
     7
100
AcDbLine
 10
191.6551889415
 20
19.3668416737836
 30
0.0
 11
191.6551889415
 21
17.8339734259596
 31
0.0
  0
LINE
  5
73
102
{ACAD_REACTORS
330
10A
330
10A
102
}
330
4F
100
AcDbEntity
  8
0
  6
Continuous
 62
     7
100
AcDbLine
 10
191.6551889415
 20
17.8339734259596
 30
0.0
 11
192.691308338763
 21
17.8339734259596
 31
0.0
  0
LINE
  5
74
102
{ACAD_REACTORS
330
10A
330
10A
102
}
330
4F
100
AcDbEntity
  8
0
  6
Continuous
 62
     7
100
AcDbLine
 10
192.691308338763
 20
17.1673067592928
 30
0.0
 11
191.6551889415
 21
17.1673067592928
 31
0.0
  0
LINE
  5
75
102
{ACAD_REACTORS
330
10A
330
10A
102
}
330
4F
100
AcDbEntity
  8
0
  6
Continuous
 62
     7
100
AcDbLine
 10
191.6551889415
 20
17.1673067592928
 30
0.0
 11
191.6551889415
 21
15.6344385114688
 31
0.0
  0
LINE
  5
76
102
{ACAD_REACTORS
330
10A
330
10A
102
}
330
4F
100
AcDbEntity
  8
0
  6
Continuous
 62
     7
100
AcDbLine
 10
191.6551889415
 20
15.6344385114688
 30
0.0
 11
192.5247341876
 21
16.1360992303725
 31
0.0
  0
LINE
  5
77
102
{ACAD_REACTORS
330
10B
330
10B
102
}
330
4F
100
AcDbEntity
  8
0
  6
Continuous
 62
     7
100
AcDbLine
 10
186.988528696562
 20
20.7526980593071
 30
0.0
 11
186.988528696563
 21
15.8473707016896
 31
0.0
  0
LINE
  5
78
102
{ACAD_REACTORS
330
10B
330
10B
102
}
330
4F
100
AcDbEntity
  8
0
  6
Continuous
 62
     7
100
AcDbLine
 10
187.655195363229
 20
15.8473707016896
 30
0.0
 11
187.655195363229
 21
19.2535360148728
 31
0.0
  0
LINE
  5
79
102
{ACAD_REACTORS
330
10B
330
10B
102
}
330
4F
100
AcDbEntity
  8
0
  6
Continuous
 62
     7
100
AcDbLine
 10
187.655195363229
 20
19.2535360148728
 30
0.0
 11
188.510852383006
 21
17.7714945827671
 31
0.0
  0
LINE
  5
7A
102
{ACAD_REACTORS
330
10B
330
10B
102
}
330
4F
100
AcDbEntity
  8
0
  6
Continuous
 62
     7
100
AcDbLine
 10
188.7995275176
 20
17.7714945827671
 30
0.0
 11
189.655184537377
 21
19.2535360148728
 31
0.0
  0
LINE
  5
7B
102
{ACAD_REACTORS
330
10B
330
10B
102
}
330
4F
100
AcDbEntity
  8
0
  6
Continuous
 62
     7
100
AcDbLine
 10
189.655184537377
 20
19.2535360148728
 30
0.0
 11
189.655184537377
 21
14.2880685085818
 31
0.0
  0
LINE
  5
7C
102
{ACAD_REACTORS
330
10B
330
10B
102
}
330
4F
100
AcDbEntity
  8
0
  6
Continuous
 62
     7
100
AcDbLine
 10
190.321851204044
 20
14.2880685085818
 30
0.0
 11
190.321851204044
 21
20.752698059307
 31
0.0
  0
LINE
  5
7D
102
{ACAD_REACTORS
330
10B
330
10B
102
}
330
4F
100
AcDbEntity
  8
0
  6
Continuous
 62
     7
100
AcDbLine
 10
189.82741752042
 20
20.8851811655447
 30
0.0
 11
188.655189950303
 21
18.8548234560689
 31
0.0
  0
LINE
  5
7E
102
{ACAD_REACTORS
330
10B
330
10B
102
}
330
4F
100
AcDbEntity
  8
0
  6
Continuous
 62
     7
100
AcDbLine
 10
188.655189950303
 20
18.8548234560689
 30
0.0
 11
187.482962380186
 21
20.8851811655447
 31
0.0
  0
LINE
  5
7F
102
{ACAD_REACTORS
330
10C
330
10C
102
}
330
4F
100
AcDbEntity
  8
0
  6
Continuous
 62
     7
100
AcDbLine
 10
186.321857625773
 20
15.270660658657
 30
0.0
 11
186.321857625773
 21
19.9439783665993
 31
0.0
  0
LINE
  5
80
102
{ACAD_REACTORS
330
10C
330
10C
102
}
330
4F
100
AcDbEntity
  8
0
  6
Continuous
 62
     7
100
AcDbLine
 10
185.655190959106
 20
19.9439783665993
 30
0.0
 11
185.655190959106
 21
15.2706619304882
 31
0.0
  0
LINE
  5
81
102
{ACAD_REACTORS
330
10C
330
10C
102
}
330
4F
100
AcDbEntity
  8
0
  6
Continuous
 62
     7
100
AcDbLine
 10
185.988710425088
 20
14.6932029657285
 30
0.0
 11
188.15634562976
 21
13.4426441938023
 31
0.0
  0
LINE
  5
82
102
{ACAD_REACTORS
330
10C
330
10C
102
}
330
4F
100
AcDbEntity
  8
0
  6
Continuous
 62
     7
100
AcDbLine
 10
188.489493932086
 20
14.0201012511681
 30
0.0
 11
186.321857625773
 21
15.270660658657
 31
0.0
  0
LINE
  5
83
102
{ACAD_REACTORS
330
10D
330
10D
102
}
330
4F
100
AcDbEntity
  8
0
  6
Continuous
 62
     7
100
AcDbLine
 10
184.988523283636
 20
19.1539094835628
 30
0.0
 11
184.988523283636
 21
15.8473707016896
 31
0.0
  0
LINE
  5
84
102
{ACAD_REACTORS
330
10D
330
10D
102
}
330
4F
100
AcDbEntity
  8
0
  6
Continuous
 62
     7
100
AcDbLine
 10
184.32185661697
 20
15.8473707016896
 30
0.0
 11
184.32185661697
 21
19.1539094835628
 31
0.0
  0
ARC
  5
AC
102
{ACAD_REACTORS
330
10A
330
10A
102
}
330
4F
100
AcDbEntity
  8
0
  6
Continuous
 62
     7
100
AcDbCircle
 10
191.321855608167
 20
15.0573018186531
 30
0.0
 40
0.3333333333339965
100
AcDbArc
 50
180.0
 51
299.9816393688164
  0
ARC
  5
AD
102
{ACAD_REACTORS
330
10A
330
10A
102
}
330
4F
100
AcDbEntity
  8
0
  6
Continuous
 62
     7
100
AcDbCircle
 10
191.321855608167
 20
19.9439783665993
 30
0.0
 40
0.3333333333332604
100
AcDbArc
 50
60.01836063118353
 51
180.0
  0
ARC
  5
AE
102
{ACAD_REACTORS
330
10A
330
10A
102
}
330
4F
100
AcDbEntity
  8
0
  6
Continuous
 62
     7
100
AcDbCircle
 10
192.691308338763
 20
19.1539094835628
 30
0.0
 40
0.3333333333332746
100
AcDbArc
 50
240.0183606311793
 51
60.01835942367227
  0
ARC
  5
AF
102
{ACAD_REACTORS
330
10A
330
10A
102
}
330
4F
100
AcDbEntity
  8
0
  6
Continuous
 62
     7
100
AcDbCircle
 10
192.691308338763
 20
17.5006400926262
 30
0.0
 40
0.3333333333333997
100
AcDbArc
 50
270.0
 51
90.0
  0
ARC
  5
B0
102
{ACAD_REACTORS
330
10A
330
10A
102
}
330
4F
100
AcDbEntity
  8
0
  6
Continuous
 62
     7
100
AcDbCircle
 10
192.691308338763
 20
15.8473707016896
 30
0.0
 40
0.3333333333332619
100
AcDbArc
 50
299.9816393688163
 51
119.9816393688206
  0
ARC
  5
B1
102
{ACAD_REACTORS
330
10B
330
10B
102
}
330
4F
100
AcDbEntity
  8
0
  6
Continuous
 62
     7
100
AcDbCircle
 10
187.253494909038
 20
20.7526980593071
 30
0.0
 40
0.2649662124751274
100
AcDbArc
 50
30.00000000000922
 51
180.0
  0
ARC
  5
B2
102
{ACAD_REACTORS
330
10B
330
10B
102
}
330
4F
100
AcDbEntity
  8
0
  6
Continuous
 62
     7
100
AcDbCircle
 10
187.321862029896
 20
15.8473707016896
 30
0.0
 40
0.3333333333330017
100
AcDbArc
 50
180.0
 51
0.0
  0
ARC
  5
B3
102
{ACAD_REACTORS
330
10B
330
10B
102
}
330
4F
100
AcDbEntity
  8
0
  6
Continuous
 62
     7
100
AcDbCircle
 10
188.655189950303
 20
17.8548279161004
 30
0.0
 40
0.1666666666662864
100
AcDbArc
 50
210.0000000000623
 51
329.9999999999426
  0
ARC
  5
B4
102
{ACAD_REACTORS
330
10B
330
10B
102
}
330
4F
100
AcDbEntity
  8
0
  6
Continuous
 62
     7
100
AcDbCircle
 10
189.98851787071
 20
14.2880685085818
 30
0.0
 40
0.3333333333330017
100
AcDbArc
 50
180.0
 51
0.0
  0
ARC
  5
B5
102
{ACAD_REACTORS
330
10B
330
10B
102
}
330
4F
100
AcDbEntity
  8
0
  6
Continuous
 62
     7
100
AcDbCircle
 10
190.056884991568
 20
20.752698059307
 30
0.0
 40
0.2649662124759971
100
AcDbArc
 50
0.0
 51
149.9999999999752
  0
ARC
  5
B6
102
{ACAD_REACTORS
330
10C
330
10C
102
}
330
4F
100
AcDbEntity
  8
0
  6
Continuous
 62
     7
100
AcDbCircle
 10
185.988524292439
 20
19.9439783665993
 30
0.0
 40
0.3333333333339965
100
AcDbArc
 50
0.0
 51
180.0
  0
ARC
  5
B7
102
{ACAD_REACTORS
330
10C
330
10C
102
}
330
4F
100
AcDbEntity
  8
0
  6
Continuous
 62
     7
100
AcDbCircle
 10
186.321859827834
 20
15.2706619304882
 30
0.0
 40
0.66666886872801
100
AcDbArc
 50
180.0
 51
240.0183606311481
  0
ARC
  5
B8
102
{ACAD_REACTORS
330
10C
330
10C
102
}
330
4F
100
AcDbEntity
  8
0
  6
Continuous
 62
     7
100
AcDbCircle
 10
188.322919780923
 20
13.7313727224852
 30
0.0
 40
0.3333333333332604
100
AcDbArc
 50
240.0183606311836
 51
60.01836063118368
  0
ARC
  5
B9
102
{ACAD_REACTORS
330
10D
330
10D
102
}
330
4F
100
AcDbEntity
  8
0
  6
Continuous
 62
     7
100
AcDbCircle
 10
184.655189950303
 20
15.8473707016896
 30
0.0
 40
0.3333333333330017
100
AcDbArc
 50
180.0
 51
0.0
  0
ARC
  5
BA
102
{ACAD_REACTORS
330
10D
330
10D
102
}
330
4F
100
AcDbEntity
  8
0
  6
Continuous
 62
     7
100
AcDbCircle
 10
184.655189950303
 20
19.1539094835628
 30
0.0
 40
0.3333333333330017
100
AcDbArc
 50
0.0
 51
180.0
  0
LWPOLYLINE
  5
CC
330
4F
100
AcDbEntity
  8
Skizziergeometrie_ISO_
  6
Continuous
 62
     7
100
AcDbPolyline
 90
        2
 70
     0
 43
0.5
 10
19.980189950303
 20
45.0006400926262
 10
19.980189950303
 20
10.0006400926262
  0
LWPOLYLINE
  5
CD
330
4F
100
AcDbEntity
  8
Skizziergeometrie_ISO_
  6
Continuous
 62
     7
100
AcDbPolyline
 90
        2
 70
     0
 43
0.5
 10
189.655184537377
 20
14.2880685085818
 10
189.655184537377
 20
19.2535360148728
  0
LWPOLYLINE
  5
CE
330
4F
100
AcDbEntity
  8
Skizziergeometrie_ISO_
  6
Continuous
 62
     7
100
AcDbPolyline
 90
        2
 70
     0
 43
0.5
 10
189.655184537377
 20
19.2535360148728
 10
188.7995275176
 20
17.7714945827671
  0
LWPOLYLINE
  5
CF
330
4F
100
AcDbEntity
  8
Skizziergeometrie_ISO_
  6
Continuous
 62
     7
100
AcDbPolyline
 90
        2
 70
     0
 43
0.5
 10
188.510852383006
 20
17.7714945827671
 10
187.655195363229
 20
19.2535360148728
  0
LWPOLYLINE
  5
D0
330
4F
100
AcDbEntity
  8
Skizziergeometrie_ISO_
  6
Continuous
 62
     7
100
AcDbPolyline
 90
        2
 70
     0
 43
0.5
 10
187.655195363229
 20
19.2535360148728
 10
187.655195363229
 20
15.8473707016896
  0
LWPOLYLINE
  5
D1
330
4F
100
AcDbEntity
  8
Skizziergeometrie_ISO_
  6
Continuous
 62
     7
100
AcDbPolyline
 90
        2
 70
     0
 43
0.5
 10
180.238754675162
 20
17.6450043569675
 10
188.655189950303
 20
22.500640092627
  0
LWPOLYLINE
  5
D2
330
4F
100
AcDbEntity
  8
Skizziergeometrie_ISO_
  6
Continuous
 62
     7
100
AcDbPolyline
 90
        2
 70
     0
 43
0.5
 10
188.655189950303
 20
22.500640092627
 10
197.071625225444
 20
17.6450043569675
  0
LWPOLYLINE
  5
D3
330
4F
100
AcDbEntity
  8
Skizziergeometrie_ISO_
  6
Continuous
 62
     7
100
AcDbPolyline
 90
        2
 70
     0
 43
0.5
 10
197.071625225444
 20
17.3562758282849
 10
188.655189950303
 20
12.5006400926254
  0
LWPOLYLINE
  5
D4
330
4F
100
AcDbEntity
  8
Skizziergeometrie_ISO_
  6
Continuous
 62
     7
100
AcDbPolyline
 90
        2
 70
     0
 43
0.5
 10
188.655189950303
 20
12.5006400926254
 10
180.238754675162
 20
17.3562758282849
  0
LWPOLYLINE
  5
D5
330
4F
100
AcDbEntity
  8
Skizziergeometrie_ISO_
  6
Continuous
 62
     7
100
AcDbPolyline
 90
        2
 70
     0
 43
0.5
 10
186.988528696563
 20
15.8473707016896
 10
186.988528696562
 20
20.7526980593071
  0
LWPOLYLINE
  5
D6
330
4F
100
AcDbEntity
  8
Skizziergeometrie_ISO_
  6
Continuous
 62
     7
100
AcDbPolyline
 90
        2
 70
     0
 43
0.5
 10
187.482962380186
 20
20.8851811655447
 10
188.655189950303
 20
18.8548234560689
  0
LWPOLYLINE
  5
D7
330
4F
100
AcDbEntity
  8
Skizziergeometrie_ISO_
  6
Continuous
 62
     7
100
AcDbPolyline
 90
        2
 70
     0
 43
0.5
 10
190.321851204044
 20
14.2880685085818
 10
190.321851204044
 20
20.752698059307
  0
LWPOLYLINE
  5
D8
330
4F
100
AcDbEntity
  8
Skizziergeometrie_ISO_
  6
Continuous
 62
     7
100
AcDbPolyline
 90
        2
 70
     0
 43
0.5
 10
189.82741752042
 20
20.8851811655447
 10
188.655189950303
 20
18.8548234560689
  0
LWPOLYLINE
  5
D9
330
4F
100
AcDbEntity
  8
Skizziergeometrie_ISO_
  6
Continuous
 62
     7
100
AcDbPolyline
 90
        2
 70
     0
 43
0.5
 10
185.655190959106
 20
15.2706619304882
 10
185.655190959106
 20
19.9439783665993
  0
LWPOLYLINE
  5
DA
330
4F
100
AcDbEntity
  8
Skizziergeometrie_ISO_
  6
Continuous
 62
     7
100
AcDbPolyline
 90
        2
 70
     0
 43
0.5
 10
186.321857625773
 20
19.9439783665993
 10
186.321857625773
 20
15.270660658657
  0
LWPOLYLINE
  5
DB
330
4F
100
AcDbEntity
  8
Skizziergeometrie_ISO_
  6
Continuous
 62
     7
100
AcDbPolyline
 90
        2
 70
     0
 43
0.5
 10
186.321857625773
 20
15.270660658657
 10
188.489493932086
 20
14.0201012511681
  0
LWPOLYLINE
  5
DC
330
4F
100
AcDbEntity
  8
Skizziergeometrie_ISO_
  6
Continuous
 62
     7
100
AcDbPolyline
 90
        2
 70
     0
 43
0.5
 10
188.15634562976
 20
13.4426441938023
 10
185.988710425088
 20
14.6932029657285
  0
LWPOLYLINE
  5
DD
330
4F
100
AcDbEntity
  8
Skizziergeometrie_ISO_
  6
Continuous
 62
     7
100
AcDbPolyline
 90
        2
 70
     0
 43
0.5
 10
184.988523283636
 20
19.1539094835628
 10
184.988523283636
 20
15.8473707016896
  0
LWPOLYLINE
  5
DE
330
4F
100
AcDbEntity
  8
Skizziergeometrie_ISO_
  6
Continuous
 62
     7
100
AcDbPolyline
 90
        2
 70
     0
 43
0.5
 10
184.32185661697
 20
15.8473707016896
 10
184.32185661697
 20
19.1539094835628
  0
LWPOLYLINE
  5
DF
330
4F
100
AcDbEntity
  8
Skizziergeometrie_ISO_
  6
Continuous
 62
     7
100
AcDbPolyline
 90
        2
 70
     0
 43
0.5
 10
191.48842975933
 20
20.2327068952822
 10
192.857882489926
 20
19.4426380122457
  0
LWPOLYLINE
  5
E0
330
4F
100
AcDbEntity
  8
Skizziergeometrie_ISO_
  6
Continuous
 62
     7
100
AcDbPolyline
 90
        2
 70
     0
 43
0.5
 10
192.5247341876
 20
18.8651809548799
 10
191.6551889415
 20
19.3668416737836
  0
LWPOLYLINE
  5
E1
330
4F
100
AcDbEntity
  8
Skizziergeometrie_ISO_
  6
Continuous
 62
     7
100
AcDbPolyline
 90
        2
 70
     0
 43
0.5
 10
191.6551889415
 20
19.3668416737836
 10
191.6551889415
 20
17.8339734259596
  0
LWPOLYLINE
  5
E2
330
4F
100
AcDbEntity
  8
Skizziergeometrie_ISO_
  6
Continuous
 62
     7
100
AcDbPolyline
 90
        2
 70
     0
 43
0.5
 10
191.6551889415
 20
17.8339734259596
 10
192.691308338763
 20
17.8339734259596
  0
LWPOLYLINE
  5
E3
330
4F
100
AcDbEntity
  8
Skizziergeometrie_ISO_
  6
Continuous
 62
     7
100
AcDbPolyline
 90
        2
 70
     0
 43
0.5
 10
192.691308338763
 20
17.1673067592928
 10
191.6551889415
 20
17.1673067592928
  0
LWPOLYLINE
  5
E4
330
4F
100
AcDbEntity
  8
Skizziergeometrie_ISO_
  6
Continuous
 62
     7
100
AcDbPolyline
 90
        2
 70
     0
 43
0.5
 10
191.6551889415
 20
17.1673067592928
 10
191.6551889415
 20
15.6344385114688
  0
LWPOLYLINE
  5
E5
330
4F
100
AcDbEntity
  8
Skizziergeometrie_ISO_
  6
Continuous
 62
     7
100
AcDbPolyline
 90
        2
 70
     0
 43
0.5
 10
191.6551889415
 20
15.6344385114688
 10
192.5247341876
 20
16.1360992303725
  0
LWPOLYLINE
  5
E6
330
4F
100
AcDbEntity
  8
Skizziergeometrie_ISO_
  6
Continuous
 62
     7
100
AcDbPolyline
 90
        2
 70
     0
 43
0.5
 10
192.857882489926
 20
15.5586421730067
 10
191.48842975933
 20
14.7685732899702
  0
LWPOLYLINE
  5
E7
330
4F
100
AcDbEntity
  8
Skizziergeometrie_ISO_
  6
Continuous
 62
     7
100
AcDbPolyline
 90
        2
 70
     0
 43
0.5
 10
190.988522274833
 20
15.0573018186531
 10
190.988522274833
 20
19.9439783665993
  0
LWPOLYLINE
  5
E8
330
4F
100
AcDbEntity
  8
Skizziergeometrie_ISO_
  6
Continuous
 62
     7
100
AcDbPolyline
 90
        2
 70
     0
 43
0.5
 10
177.330189950303
 20
25.0006400926262
 10
177.330189950303
 20
10.0006400926262
  0
LWPOLYLINE
  5
E9
330
4F
100
AcDbEntity
  8
Skizziergeometrie_ISO_
  6
Continuous
 62
     7
100
AcDbPolyline
 90
        2
 70
     0
 43
0.5
 10
159.980189950303
 20
25.0006400926262
 10
159.980189950303
 20
10.0006400926262
  0
LWPOLYLINE
  5
EA
330
4F
100
AcDbEntity
  8
Skizziergeometrie_ISO_
  6
Continuous
 62
     7
100
AcDbPolyline
 90
        2
 70
     0
 43
0.5
 10
49.9801899503031
 20
10.0006400926262
 10
49.9801899503031
 20
25.0006400926262
  0
LWPOLYLINE
  5
EB
330
4F
100
AcDbEntity
  8
Skizziergeometrie_ISO_
  6
Continuous
 62
     7
100
AcDbPolyline
 90
        2
 70
     0
 43
0.5
 10
44.980189950303
 20
45.0006400926262
 10
44.980189950303
 20
25.0006400926262
  0
LWPOLYLINE
  5
EC
330
4F
100
AcDbEntity
  8
Skizziergeometrie_ISO_
  6
Continuous
 62
     7
100
AcDbPolyline
 90
        2
 70
     0
 43
0.5
 10
26.980189950303
 20
45.0006400926262
 10
26.980189950303
 20
25.0006400926262
  0
LWPOLYLINE
  5
ED
330
4F
100
AcDbEntity
  8
Skizziergeometrie_ISO_
  6
Continuous
 62
     7
100
AcDbPolyline
 90
        2
 70
     0
 43
0.5
 10
19.980189950303
 20
17.5006400926262
 10
49.9801899503031
 20
17.5006400926262
  0
LWPOLYLINE
  5
EE
330
4F
100
AcDbEntity
  8
Skizziergeometrie_ISO_
  6
Continuous
 62
     7
100
AcDbPolyline
 90
        2
 70
     0
 43
0.5
 10
19.980189950303
 20
25.0006400926262
 10
199.980189950303
 20
25.0006400926262
  0
LWPOLYLINE
  5
EF
330
4F
100
AcDbEntity
  8
Skizziergeometrie_ISO_
  6
Continuous
 62
     7
100
AcDbPolyline
 90
        2
 70
     0
 43
0.5
 10
19.980189950303
 20
30.0006400926262
 10
199.980189950303
 20
30.0006400926262
  0
LWPOLYLINE
  5
F0
330
4F
100
AcDbEntity
  8
Skizziergeometrie_ISO_
  6
Continuous
 62
     7
100
AcDbPolyline
 90
        2
 70
     0
 43
0.5
 10
19.980189950303
 20
35.0006400926262
 10
199.980189950303
 20
35.0006400926262
  0
LWPOLYLINE
  5
F1
330
4F
100
AcDbEntity
  8
Skizziergeometrie_ISO_
  6
Continuous
 62
     7
100
AcDbPolyline
 90
        2
 70
     0
 43
0.5
 10
19.980189950303
 20
40.0006400926262
 10
199.980189950303
 20
40.0006400926262
  0
LWPOLYLINE
  5
F2
330
4F
100
AcDbEntity
  8
Skizziergeometrie_ISO_
  6
Continuous
 62
     7
100
AcDbPolyline
 90
        2
 70
     0
 43
0.5
 10
19.980189950303
 20
45.0006400926262
 10
199.980189950303
 20
45.0006400926262
  0
LWPOLYLINE
  5
F3
330
4F
100
AcDbEntity
  8
Skizziergeometrie_ISO_
  6
Continuous
 62
     7
100
AcDbPolyline
 90
        2
 70
     0
 43
0.5
 10
188.510852383006
 20
17.77149458276709
 42
0.57735026918893
 10
188.7995275176
 20
17.77149458276711
  0
LWPOLYLINE
  5
F4
330
4F
100
AcDbEntity
  8
Skizziergeometrie_ISO_
  6
Continuous
 62
     7
100
AcDbPolyline
 90
        2
 70
     0
 43
0.5
 10
185.655190959106
 20
15.2706619304882
 42
0.26803505952205
 10
185.988710425088
 20
14.6932029657285
  0
LWPOLYLINE
  5
F5
330
4F
100
AcDbEntity
  8
Skizziergeometrie_ISO_
  6
Continuous
 62
     7
100
AcDbPolyline
 90
        2
 70
     0
 43
0.5
 10
180.238754675162
 20
17.6450043569675
 42
0.57756392459859
 10
180.238754675162
 20
17.3562758282849
  0
LWPOLYLINE
  5
F6
330
4F
100
AcDbEntity
  8
Skizziergeometrie_ISO_
  6
Continuous
 62
     7
100
AcDbPolyline
 90
        2
 70
     0
 43
0.5
 10
197.071625225444
 20
17.3562758282849
 42
0.57756392459859
 10
197.071625225444
 20
17.6450043569675
  0
LWPOLYLINE
  5
F7
330
4F
100
AcDbEntity
  8
Skizziergeometrie_ISO_
  6
Continuous
 62
     7
100
AcDbPolyline
 90
        2
 70
     0
 43
0.5
 10
191.48842975933
 20
20.2327068952822
 42
0.57724345630757
 10
190.988522274833
 20
19.9439783665993
  0
LWPOLYLINE
  5
F8
330
4F
100
AcDbEntity
  8
Skizziergeometrie_ISO_
  6
Continuous
 62
     7
100
AcDbPolyline
 90
        2
 70
     0
 43
0.5
 10
190.988522274833
 20
15.0573018186531
 42
0.57724345630757
 10
191.48842975933
 20
14.7685732899702
  0
LWPOLYLINE
  5
F9
330
4F
100
AcDbEntity
  8
Skizziergeometrie_ISO_
  6
Continuous
 62
     7
100
AcDbPolyline
 90
        2
 70
     0
 43
0.5
 10
187.482962380186
 20
20.8851811655447
 42
0.76732698797888
 10
186.988528696562
 20
20.7526980593071
  0
LWPOLYLINE
  5
FA
330
4F
100
AcDbEntity
  8
Skizziergeometrie_ISO_
  6
Continuous
 62
     7
100
AcDbPolyline
 90
        2
 70
     0
 43
0.5
 10
186.988528696563
 20
15.8473707016896
 42
1.0
 10
187.655195363229
 20
15.8473707016896
  0
LWPOLYLINE
  5
FB
330
4F
100
AcDbEntity
  8
Skizziergeometrie_ISO_
  6
Continuous
 62
     7
100
AcDbPolyline
 90
        2
 70
     0
 43
0.5
 10
189.655184537377
 20
14.2880685085818
 42
1.0
 10
190.321851204044
 20
14.2880685085818
  0
LWPOLYLINE
  5
FC
330
4F
100
AcDbEntity
  8
Skizziergeometrie_ISO_
  6
Continuous
 62
     7
100
AcDbPolyline
 90
        2
 70
     0
 43
0.5
 10
190.321851204044
 20
20.752698059307
 42
0.76732698797879
 10
189.82741752042
 20
20.8851811655447
  0
LWPOLYLINE
  5
FD
330
4F
100
AcDbEntity
  8
Skizziergeometrie_ISO_
  6
Continuous
 62
     7
100
AcDbPolyline
 90
        2
 70
     0
 43
0.5
 10
186.321857625773
 20
19.9439783665993
 42
1.0
 10
185.655190959106
 20
19.9439783665993
  0
LWPOLYLINE
  5
FE
330
4F
100
AcDbEntity
  8
Skizziergeometrie_ISO_
  6
Continuous
 62
     7
100
AcDbPolyline
 90
        2
 70
     0
 43
0.5
 10
188.15634562976
 20
13.4426441938023
 42
1.0
 10
188.489493932086
 20
14.0201012511681
  0
LWPOLYLINE
  5
FF
330
4F
100
AcDbEntity
  8
Skizziergeometrie_ISO_
  6
Continuous
 62
     7
100
AcDbPolyline
 90
        2
 70
     0
 43
0.5
 10
184.988523283636
 20
19.1539094835628
 42
1.0
 10
184.32185661697
 20
19.1539094835628
  0
LWPOLYLINE
  5
100
330
4F
100
AcDbEntity
  8
Skizziergeometrie_ISO_
  6
Continuous
 62
     7
100
AcDbPolyline
 90
        2
 70
     0
 43
0.5
 10
184.32185661697
 20
15.8473707016896
 42
1.0
 10
184.988523283636
 20
15.8473707016896
  0
LWPOLYLINE
  5
101
330
4F
100
AcDbEntity
  8
Skizziergeometrie_ISO_
  6
Continuous
 62
     7
100
AcDbPolyline
 90
        2
 70
     0
 43
0.5
 10
192.5247341876
 20
18.8651809548799
 42
1.00000000000005
 10
192.857882489926
 20
19.4426380122457
  0
LWPOLYLINE
  5
102
330
4F
100
AcDbEntity
  8
Skizziergeometrie_ISO_
  6
Continuous
 62
     7
100
AcDbPolyline
 90
        2
 70
     0
 43
0.5
 10
192.691308338763
 20
17.1673067592928
 42
1.0
 10
192.691308338763
 20
17.8339734259596
  0
LWPOLYLINE
  5
103
330
4F
100
AcDbEntity
  8
Skizziergeometrie_ISO_
  6
Continuous
 62
     7
100
AcDbPolyline
 90
        2
 70
     0
 43
0.5
 10
192.857882489926
 20
15.5586421730067
 42
1.00000000000005
 10
192.5247341876
 20
16.1360992303725
  0
MTEXT
  5
105
330
4F
100
AcDbEntity
  8
Symbole_ISO_
 62
     7
100
AcDbMText
 10
39.980189950303
 20
21.2506400926262
 30
0.0
 40
3.49999994039535
 41
0.0
 71
     5
 72
     1
  1
04.01.2007
  7
CONVERTER_12
 73
     1
 44
1.0
  0
MTEXT
  5
107
330
4F
100
AcDbEntity
  8
Symbole_ISO_
 62
     7
100
AcDbMText
 10
168.655189950303
 20
22.5006400926262
 30
0.0
 40
2.5
 41
0.0
 71
     5
 72
     1
  1
Scale
  7
CONVERTER_13
 73
     1
 44
1.0
  0
MTEXT
  5
108
330
4F
100
AcDbEntity
  8
Symbole_ISO_
 62
     7
100
AcDbMText
 10
20.980189950303
 20
13.7506400926262
 30
0.0
 40
2.5
 41
0.0
 71
     4
 72
     1
  1
Sign.
  7
CONVERTER_13
 73
     1
 44
1.0
  0
MTEXT
  5
109
330
4F
100
AcDbEntity
  8
Symbole_ISO_
 62
     7
100
AcDbMText
 10
20.980189950303
 20
21.2506400926262
 30
0.0
 40
2.5
 41
0.0
 71
     4
 72
     1
  1
Date
  7
CONVERTER_13
 73
     1
 44
1.0
  0
HATCH
  5
10A
330
4F
100
AcDbEntity
  8
Schraffur
  6
Continuous
 62
     7
100
AcDbHatch
 10
0.0
 20
0.0
 30
0.0
210
0.0
220
0.0
230
1.0
  2
SOLID
 70
     1
 71
     1
 91
        1
 92
        1
 93
       14
 72
     2
 10
192.691308338763
 20
19.1539094835628
 40
0.3333333333332746
 50
299.9816405763278
 51
479.9816393688208
 73
     0
 72
     1
 10
192.5247341876
 20
18.8651809548799
 11
191.6551889415
 21
19.3668416737836
 72
     1
 10
191.6551889415
 20
19.3668416737836
 11
191.6551889415
 21
17.8339734259596
 72
     1
 10
191.6551889415
 20
17.8339734259596
 11
192.691308338763
 21
17.8339734259596
 72
     2
 10
192.691308338763
 20
17.5006400926262
 40
0.3333333333333997
 50
270.0
 51
450.0
 73
     0
 72
     1
 10
192.691308338763
 20
17.1673067592928
 11
191.6551889415
 21
17.1673067592928
 72
     1
 10
191.6551889415
 20
17.1673067592928
 11
191.6551889415
 21
15.6344385114688
 72
     1
 10
191.6551889415
 20
15.6344385114688
 11
192.5247341876
 21
16.1360992303725
 72
     2
 10
192.691308338763
 20
15.8473707016896
 40
0.3333333333332619
 50
240.0183606311795
 51
420.0183606311837
 73
     0
 72
     1
 10
192.857882489926
 20
15.5586421730067
 11
191.48842975933
 21
14.7685732899702
 72
     2
 10
191.321855608167
 20
15.0573018186531
 40
0.3333333333339965
 50
60.01836063118353
 51
180.0
 73
     0
 72
     1
 10
190.988522274833
 20
15.0573018186531
 11
190.988522274833
 21
19.9439783665993
 72
     2
 10
191.321855608167
 20
19.9439783665993
 40
0.3333333333332604
 50
180.0
 51
299.9816393688164
 73
     0
 72
     1
 10
191.48842975933
 20
20.2327068952822
 11
192.857882489926
 21
19.4426380122457
 97
       14
330
6E
330
AC
330
6F
330
AD
330
70
330
AE
330
71
330
72
330
73
330
AF
330
74
330
75
330
76
330
B0
 75
     0
 76
     1
 98
        1
 10
0.0
 20
0.0
  0
HATCH
  5
10B
330
4F
100
AcDbEntity
  8
Schraffur
  6
Continuous
 62
     7
100
AcDbHatch
 10
0.0
 20
0.0
 30
0.0
210
0.0
220
0.0
230
1.0
  2
SOLID
 70
     1
 71
     1
 91
        1
 92
        1
 93
       13
 72
     2
 10
187.253494909038
 20
20.7526980593071
 40
0.2649662124751274
 50
30.00000000000922
 51
180.0
 73
     1
 72
     1
 10
186.988528696562
 20
20.7526980593071
 11
186.988528696563
 21
15.8473707016896
 72
     2
 10
187.321862029896
 20
15.8473707016896
 40
0.3333333333330017
 50
180.0
 51
360.0
 73
     1
 72
     1
 10
187.655195363229
 20
15.8473707016896
 11
187.655195363229
 21
19.2535360148728
 72
     1
 10
187.655195363229
 20
19.2535360148728
 11
188.510852383006
 21
17.7714945827671
 72
     2
 10
188.655189950303
 20
17.8548279161004
 40
0.1666666666662864
 50
210.0000000000623
 51
329.9999999999426
 73
     1
 72
     1
 10
188.7995275176
 20
17.7714945827671
 11
189.655184537377
 21
19.2535360148728
 72
     1
 10
189.655184537377
 20
19.2535360148728
 11
189.655184537377
 21
14.2880685085818
 72
     2
 10
189.98851787071
 20
14.2880685085818
 40
0.3333333333330017
 50
180.0
 51
360.0
 73
     1
 72
     1
 10
190.321851204044
 20
14.2880685085818
 11
190.321851204044
 21
20.752698059307
 72
     2
 10
190.056884991568
 20
20.752698059307
 40
0.2649662124759971
 50
0.0
 51
149.9999999999752
 73
     1
 72
     1
 10
189.82741752042
 20
20.8851811655447
 11
188.655189950303
 21
18.8548234560689
 72
     1
 10
188.655189950303
 20
18.8548234560689
 11
187.482962380186
 21
20.8851811655447
 97
       13
330
7D
330
B5
330
7C
330
B4
330
7B
330
7A
330
B3
330
79
330
78
330
B2
330
77
330
B1
330
7E
 75
     0
 76
     1
 98
        1
 10
0.0
 20
0.0
  0
HATCH
  5
10C
330
4F
100
AcDbEntity
  8
Schraffur
  6
Continuous
 62
     7
100
AcDbHatch
 10
0.0
 20
0.0
 30
0.0
210
0.0
220
0.0
230
1.0
  2
SOLID
 70
     1
 71
     1
 91
        1
 92
        1
 93
        7
 72
     1
 10
186.321857625773
 20
15.270660658657
 11
186.321857625773
 21
19.9439783665993
 72
     2
 10
185.988524292439
 20
19.9439783665993
 40
0.3333333333339965
 50
0.0
 51
180.0
 73
     1
 72
     1
 10
185.655190959106
 20
19.9439783665993
 11
185.655190959106
 21
15.2706619304882
 72
     2
 10
186.321859827834
 20
15.2706619304882
 40
0.66666886872801
 50
180.0
 51
240.0183606311481
 73
     1
 72
     1
 10
185.988710425088
 20
14.6932029657285
 11
188.15634562976
 21
13.4426441938023
 72
     2
 10
188.322919780923
 20
13.7313727224852
 40
0.3333333333332604
 50
240.0183606311836
 51
420.0183606311837
 73
     1
 72
     1
 10
188.489493932086
 20
14.0201012511681
 11
186.321857625773
 21
15.270660658657
 97
        7
330
B8
330
81
330
B7
330
80
330
B6
330
7F
330
82
 75
     0
 76
     1
 98
        1
 10
0.0
 20
0.0
  0
HATCH
  5
10D
330
4F
100
AcDbEntity
  8
Schraffur
  6
Continuous
 62
     7
100
AcDbHatch
 10
0.0
 20
0.0
 30
0.0
210
0.0
220
0.0
230
1.0
  2
SOLID
 70
     1
 71
     1
 91
        1
 92
        1
 93
        4
 72
     1
 10
184.988523283636
 20
19.1539094835628
 11
184.988523283636
 21
15.8473707016896
 72
     2
 10
184.655189950303
 20
15.8473707016896
 40
0.3333333333330017
 50
0.0
 51
180.0
 73
     0
 72
     1
 10
184.32185661697
 20
15.8473707016896
 11
184.32185661697
 21
19.1539094835628
 72
     2
 10
184.655189950303
 20
19.1539094835628
 40
0.3333333333330017
 50
180.0
 51
360.0
 73
     0
 97
        4
330
83
330
B9
330
84
330
BA
 75
     0
 76
     1
 98
        1
 10
0.0
 20
0.0
  0
ENDBLK
  5
51
330
4F
100
AcDbEntity
  8
0
100
AcDbBlockEnd
  0
BLOCK
  5
53
330
52
100
AcDbEntity
  8
0
100
AcDbBlockBegin
  2
Ränder_Ilme_Rahmen_A4_quer
 70
     0
 10
0.0
 20
0.0
 30
0.0
  3
Ränder_Ilme_Rahmen_A4_quer
  1

  0
LWPOLYLINE
  5
113
330
52
100
AcDbEntity
  8
Skizziergeometrie_ISO_
  6
Continuous
 62
     7
100
AcDbPolyline
 90
        2
 70
     0
 43
0.5
 10
287.0
 20
190.0
 10
287.0
 20
10.0
  0
LWPOLYLINE
  5
114
330
52
100
AcDbEntity
  8
Skizziergeometrie_ISO_
  6
Continuous
 62
     7
100
AcDbPolyline
 90
        2
 70
     0
 43
0.5
 10
148.5
 20
210.0
 10
148.5
 20
196.0
  0
LWPOLYLINE
  5
115
330
52
100
AcDbEntity
  8
Skizziergeometrie_ISO_
  6
Continuous
 62
     7
100
AcDbPolyline
 90
        2
 70
     0
 43
0.5
 10
9.99999999999998
 20
9.99999999999995
 10
287.0
 20
10.0
  0
LWPOLYLINE
  5
116
330
52
100
AcDbEntity
  8
Skizziergeometrie_ISO_
  6
Continuous
 62
     7
100
AcDbPolyline
 90
        2
 70
     0
 43
0.5
 10
10.0
 20
190.0
 10
287.0
 20
190.0
  0
LWPOLYLINE
  5
117
330
52
100
AcDbEntity
  8
Skizziergeometrie_ISO_
  6
Continuous
 62
     7
100
AcDbPolyline
 90
        2
 70
     0
 43
0.5
 10
9.99999999999998
 20
9.99999999999995
 10
10.0
 20
190.0
  0
MTEXT
  5
118
330
52
100
AcDbEntity
  8
Symbole_ISO_
 62
     7
100
AcDbMText
 10
148.5
 20
196.0
 30
0.0
 40
3.5
 41
0.0
 71
     2
 72
     1
  1
Diritti riservati     All rights reseved
  7
CONVERTER_13
 73
     1
 44
1.0
  0
ENDBLK
  5
54
330
52
100
AcDbEntity
  8
0
100
AcDbBlockEnd
  0
BLOCK
  5
365
330
35E
100
AcDbEntity
  8
0
100
AcDbBlockBegin
  2
*D4
 70
     1
 10
0.0
 20
0.0
 30
0.0
  3
*D4
  1

  0
LINE
  5
35F
330
35E
100
AcDbEntity
  8
Bemaßungen_TC_020513_DIN_
  6
Continuous
 62
     7
100
AcDbLine
 10
155.7600231045205
 20
169.461804779764
 30
0.0
 11
155.7600231045205
 21
299.461804779764
 31
0.0
  0
LINE
  5
360
330
35E
100
AcDbEntity
  8
Bemaßungen_TC_020513_DIN_
  6
Continuous
 62
     7
100
AcDbLine
 10
125.76002310452
 20
169.461804779764
 30
0.0
 11
159.7600231045205
 21
169.461804779764
 31
0.0
  0
LINE
  5
361
330
35E
100
AcDbEntity
  8
Bemaßungen_TC_020513_DIN_
  6
Continuous
 62
     7
100
AcDbLine
 10
125.76002310452
 20
299.461804779764
 30
0.0
 11
159.7600231045205
 21
299.461804779764
 31
0.0
  0
SOLID
  5
362
330
35E
100
AcDbEntity
  8
Bemaßungen_TC_020513_DIN_
 62
     7
100
AcDbTrace
 10
155.1017606165836
 20
174.461804779764
 30
0.0
 11
156.4182855924575
 21
174.461804779764
 31
0.0
 12
155.7600231045205
 22
169.461804779764
 32
0.0
 13
155.7600231045205
 23
169.461804779764
 33
0.0
  0
SOLID
  5
363
330
35E
100
AcDbEntity
  8
Bemaßungen_TC_020513_DIN_
 62
     7
100
AcDbTrace
 10
156.4182855924575
 20
294.461804779764
 30
0.0
 11
155.1017606165836
 21
294.461804779764
 31
0.0
 12
155.7600231045205
 22
299.461804779764
 32
0.0
 13
155.7600231045205
 23
299.461804779764
 33
0.0
  0
MTEXT
  5
364
330
35E
100
AcDbEntity
  8
Bemaßungen_TC_020513_DIN_
 62
     7
100
AcDbMText
 10
150.4375746374425
 20
231.2469298366087
 30
0.0
 40
7.0
 41
0.0
 71
     7
 72
     1
  1
130
  7
CONVERTER_16
 11
0.0
 21
1.0
 31
0.0
 73
     1
 44
0.60024009603842
  0
ENDBLK
  5
366
330
35E
100
AcDbEntity
  8
0
100
AcDbBlockEnd
  0
BLOCK
  5
370
330
369
100
AcDbEntity
  8
0
100
AcDbBlockBegin
  2
*D5
 70
     1
 10
0.0
 20
0.0
 30
0.0
  3
*D5
  1

  0
LINE
  5
36A
330
369
100
AcDbEntity
  8
Bemaßungen_TC_020513_DIN_
  6
Continuous
 62
     7
100
AcDbLine
 10
123.76002310452
 20
319.4618152153664
 30
0.0
 11
91.7600231045204
 21
319.4618152153664
 31
0.0
  0
LINE
  5
36B
330
369
100
AcDbEntity
  8
Bemaßungen_TC_020513_DIN_
  6
Continuous
 62
     7
100
AcDbLine
 10
123.76002310452
 20
301.4618047797641
 30
0.0
 11
123.76002310452
 21
323.4618152153664
 31
0.0
  0
LINE
  5
36C
330
369
100
AcDbEntity
  8
Bemaßungen_TC_020513_DIN_
  6
Continuous
 62
     7
100
AcDbLine
 10
91.7600231045204
 20
301.4618047797641
 30
0.0
 11
91.7600231045204
 21
323.4618152153664
 31
0.0
  0
SOLID
  5
36D
330
369
100
AcDbEntity
  8
Bemaßungen_TC_020513_DIN_
 62
     7
100
AcDbTrace
 10
118.76002310452
 20
318.8035527274294
 30
0.0
 11
118.76002310452
 21
320.1200777033033
 31
0.0
 12
123.76002310452
 22
319.4618152153664
 32
0.0
 13
123.76002310452
 23
319.4618152153664
 33
0.0
  0
SOLID
  5
36E
330
369
100
AcDbEntity
  8
Bemaßungen_TC_020513_DIN_
 62
     7
100
AcDbTrace
 10
96.7600231045204
 20
320.1200777033033
 30
0.0
 11
96.7600231045204
 21
318.8035527274294
 31
0.0
 12
91.7600231045204
 22
319.4618152153664
 32
0.0
 13
91.7600231045204
 23
319.4618152153664
 33
0.0
  0
MTEXT
  5
36F
330
369
100
AcDbEntity
  8
Bemaßungen_TC_020513_DIN_
 62
     7
100
AcDbMText
 10
105.6429197659191
 20
324.7842462614936
 30
0.0
 40
7.0
 41
0.0
 71
     7
 72
     1
  1
32
  7
CONVERTER_16
 11
0.9999999999882478
 21
4.848136811095759E-6
 31
0.0
 73
     1
 44
0.60024009603842
  0
ENDBLK
  5
371
330
369
100
AcDbEntity
  8
0
100
AcDbBlockEnd
  0
BLOCK
  5
37B
330
374
100
AcDbEntity
  8
0
100
AcDbBlockBegin
  2
*D6
 70
     1
 10
0.0
 20
0.0
 30
0.0
  3
*D6
  1

  0
LINE
  5
375
330
374
100
AcDbEntity
  8
Bemaßungen_TC_020513_DIN_
  6
Continuous
 62
     7
100
AcDbLine
 10
68.59833156223189
 20
178.4618047797639
 30
0.0
 11
68.59833156223189
 21
290.4618047797639
 31
0.0
  0
LINE
  5
376
330
374
100
AcDbEntity
  8
Bemaßungen_TC_020513_DIN_
  6
Continuous
 62
     7
100
AcDbLine
 10
87.26002310452041
 20
178.4618047797639
 30
0.0
 11
64.5983315622319
 21
178.4618047797639
 31
0.0
  0
LINE
  5
377
330
374
100
AcDbEntity
  8
Bemaßungen_TC_020513_DIN_
  6
Continuous
 62
     7
100
AcDbLine
 10
87.26002310452041
 20
290.4618047797639
 30
0.0
 11
64.5983315622319
 21
290.4618047797639
 31
0.0
  0
SOLID
  5
378
330
374
100
AcDbEntity
  8
Bemaßungen_TC_020513_DIN_
 62
     7
100
AcDbTrace
 10
67.94006907429491
 20
183.4618047797639
 30
0.0
 11
69.25659405016887
 21
183.4618047797639
 31
0.0
 12
68.59833156223189
 22
178.4618047797639
 32
0.0
 13
68.59833156223189
 23
178.4618047797639
 33
0.0
  0
SOLID
  5
379
330
374
100
AcDbEntity
  8
Bemaßungen_TC_020513_DIN_
 62
     7
100
AcDbTrace
 10
69.25659405016887
 20
285.4618047797639
 30
0.0
 11
67.94006907429491
 21
285.4618047797639
 31
0.0
 12
68.59833156223189
 22
290.4618047797639
 32
0.0
 13
68.59833156223189
 23
290.4618047797639
 33
0.0
  0
MTEXT
  5
37A
330
374
100
AcDbEntity
  8
Bemaßungen_TC_020513_DIN_
 62
     7
100
AcDbMText
 10
64.04682714706351
 20
231.9466249777556
 30
0.0
 40
7.0
 41
0.0
 71
     7
 72
     1
  1
112
  7
CONVERTER_16
 11
0.0
 21
1.0
 31
0.0
 73
     1
 44
0.60024009603842
  0
ENDBLK
  5
37C
330
374
100
AcDbEntity
  8
0
100
AcDbBlockEnd
  0
BLOCK
  5
386
330
37F
100
AcDbEntity
  8
0
100
AcDbBlockBegin
  2
*D7
 70
     1
 10
0.0
 20
0.0
 30
0.0
  3
*D7
  1

  0
LINE
  5
380
330
37F
100
AcDbEntity
  8
Bemaßungen_TC_020513_DIN_
  6
Continuous
 62
     7
100
AcDbLine
 10
126.26002310452
 20
135.123506757655
 30
0.0
 11
89.2600231045204
 21
135.123506757655
 31
0.0
  0
LINE
  5
381
330
37F
100
AcDbEntity
  8
Bemaßungen_TC_020513_DIN_
  6
Continuous
 62
     7
100
AcDbLine
 10
126.26002310452
 20
176.461804779764
 30
0.0
 11
126.26002310452
 21
131.123506757655
 31
0.0
  0
LINE
  5
382
330
37F
100
AcDbEntity
  8
Bemaßungen_TC_020513_DIN_
  6
Continuous
 62
     7
100
AcDbLine
 10
89.2600231045204
 20
176.461804779764
 30
0.0
 11
89.2600231045204
 21
131.123506757655
 31
0.0
  0
SOLID
  5
383
330
37F
100
AcDbEntity
  8
Bemaßungen_TC_020513_DIN_
 62
     7
100
AcDbTrace
 10
121.26002310452
 20
134.465244269718
 30
0.0
 11
121.26002310452
 21
135.781769245592
 31
0.0
 12
126.26002310452
 22
135.123506757655
 32
0.0
 13
126.26002310452
 23
135.123506757655
 33
0.0
  0
SOLID
  5
384
330
37F
100
AcDbEntity
  8
Bemaßungen_TC_020513_DIN_
 62
     7
100
AcDbTrace
 10
94.2600231045204
 20
135.781769245592
 30
0.0
 11
94.2600231045204
 21
134.465244269718
 31
0.0
 12
89.2600231045204
 22
135.123506757655
 32
0.0
 13
89.2600231045204
 23
135.123506757655
 33
0.0
  0
MTEXT
  5
385
330
37F
100
AcDbEntity
  8
Bemaßungen_TC_020513_DIN_
 62
     7
100
AcDbMText
 10
105.5721080333142
 20
139.7842461766512
 30
0.0
 40
7.0
 41
0.0
 71
     7
 72
     1
  1
37
  7
CONVERTER_16
 11
0.9999999999882478
 21
4.848136811095759E-6
 31
0.0
 73
     1
 44
0.60024009603842
  0
ENDBLK
  5
387
330
37F
100
AcDbEntity
  8
0
100
AcDbBlockEnd
  0
BLOCK
  5
391
330
38A
100
AcDbEntity
  8
0
100
AcDbBlockBegin
  2
*D8
 70
     1
 10
0.0
 20
0.0
 30
0.0
  3
*D8
  1

  0
LINE
  5
38B
330
38A
100
AcDbEntity
  8
Bemaßungen_TC_020513_DIN_
  6
Continuous
 62
     7
100
AcDbLine
 10
504.681845155404
 20
274.1405890492021
 30
0.0
 11
428.681845155398
 21
274.1405890492021
 31
0.0
  0
LINE
  5
38C
330
38A
100
AcDbEntity
  8
Bemaßungen_TC_020513_DIN_
  6
Continuous
 62
     7
100
AcDbLine
 10
504.681845155404
 20
186.3905786136
 30
0.0
 11
504.681845155404
 21
278.1405890492021
 31
0.0
  0
LINE
  5
38D
330
38A
100
AcDbEntity
  8
Bemaßungen_TC_020513_DIN_
  6
Continuous
 62
     7
100
AcDbLine
 10
428.681845155398
 20
244.1405786136
 30
0.0
 11
428.681845155398
 21
278.1405890492021
 31
0.0
  0
SOLID
  5
38E
330
38A
100
AcDbEntity
  8
Bemaßungen_TC_020513_DIN_
 62
     7
100
AcDbTrace
 10
499.681845155404
 20
273.4823265612652
 30
0.0
 11
499.681845155404
 21
274.7988515371391
 31
0.0
 12
504.681845155404
 22
274.1405890492021
 32
0.0
 13
504.681845155404
 23
274.1405890492021
 33
0.0
  0
SOLID
  5
38F
330
38A
100
AcDbEntity
  8
Bemaßungen_TC_020513_DIN_
 62
     7
100
AcDbTrace
 10
433.681845155398
 20
274.7988515371391
 30
0.0
 11
433.681845155398
 21
273.4823265612652
 31
0.0
 12
428.681845155398
 22
274.1405890492021
 32
0.0
 13
428.681845155398
 23
274.1405890492021
 33
0.0
  0
MTEXT
  5
390
330
38A
100
AcDbEntity
  8
Bemaßungen_TC_020513_DIN_
 62
     7
100
AcDbMText
 10
464.5225794702792
 20
279.4582451128061
 30
0.0
 40
7.0
 41
0.0
 71
     7
 72
     1
  1
76
  7
CONVERTER_16
 11
0.9999999999882478
 21
4.848136811095759E-6
 31
0.0
 73
     1
 44
0.60024009603842
  0
ENDBLK
  5
392
330
38A
100
AcDbEntity
  8
0
100
AcDbBlockEnd
  0
BLOCK
  5
39C
330
395
100
AcDbEntity
  8
0
100
AcDbBlockBegin
  2
*D9
 70
     1
 10
0.0
 20
0.0
 30
0.0
  3
*D9
  1

  0
LINE
  5
396
330
395
100
AcDbEntity
  8
Bemaßungen_TC_020513_DIN_
  6
Continuous
 62
     7
100
AcDbLine
 10
550.1818451553937
 20
162.6405786136
 30
0.0
 11
550.1818451553937
 21
191.6405786136
 31
0.0
  0
LINE
  5
397
330
395
100
AcDbEntity
  8
Bemaßungen_TC_020513_DIN_
  6
Continuous
 62
     7
100
AcDbLine
 10
496.1818451553941
 20
162.6405786136
 30
0.0
 11
554.1818451553937
 21
162.6405786136
 31
0.0
  0
LINE
  5
398
330
395
100
AcDbEntity
  8
Bemaßungen_TC_020513_DIN_
  6
Continuous
 62
     7
100
AcDbLine
 10
494.4318451553979
 20
191.6405786136
 30
0.0
 11
554.1818451553937
 21
191.6405786136
 31
0.0
  0
SOLID
  5
399
330
395
100
AcDbEntity
  8
Bemaßungen_TC_020513_DIN_
 62
     7
100
AcDbTrace
 10
549.5235826674567
 20
167.6405786136
 30
0.0
 11
550.8401076433307
 21
167.6405786136
 31
0.0
 12
550.1818451553937
 22
162.6405786136
 32
0.0
 13
550.1818451553937
 23
162.6405786136
 33
0.0
  0
SOLID
  5
39A
330
395
100
AcDbEntity
  8
Bemaßungen_TC_020513_DIN_
 62
     7
100
AcDbTrace
 10
550.8401076433307
 20
186.6405786136
 30
0.0
 11
549.5235826674567
 21
186.6405786136
 31
0.0
 12
550.1818451553937
 22
191.6405786136
 32
0.0
 13
550.1818451553937
 23
191.6405786136
 33
0.0
  0
MTEXT
  5
39B
330
395
100
AcDbEntity
  8
Bemaßungen_TC_020513_DIN_
 62
     7
100
AcDbMText
 10
544.8641715859965
 20
174.8834208146004
 30
0.0
 40
7.0
 41
0.0
 71
     7
 72
     1
  1
29
  7
CONVERTER_16
 11
0.0
 21
1.0
 31
0.0
 73
     1
 44
0.60024009603842
  0
ENDBLK
  5
39D
330
395
100
AcDbEntity
  8
0
100
AcDbBlockEnd
  0
BLOCK
  5
3A9
330
3A0
100
AcDbEntity
  8
0
100
AcDbBlockBegin
  2
*D10
 70
     1
 10
0.0
 20
0.0
 30
0.0
  3
*D10
  1

  0
LINE
  5
3A1
330
3A0
100
AcDbEntity
  8
Bemaßungen_TC_020513_DIN_
  6
Continuous
 62
     7
100
AcDbLine
 10
526.1818451553937
 20
152.6405786136
 30
0.0
 11
526.1818451553937
 21
162.6405786136
 31
0.0
  0
LINE
  5
3A2
330
3A0
100
AcDbEntity
  8
Bemaßungen_TC_020513_DIN_
  6
Continuous
 62
     7
100
AcDbLine
 10
526.1818451553937
 20
162.6405786136
 30
0.0
 11
526.1818451553937
 21
168.6405786136
 31
0.0
  0
LINE
  5
3A3
330
3A0
100
AcDbEntity
  8
Bemaßungen_TC_020513_DIN_
  6
Continuous
 62
     7
100
AcDbLine
 10
526.1818451553937
 20
168.6405786136
 30
0.0
 11
526.1818451553937
 21
178.6405786136
 31
0.0
  0
LINE
  5
3A4
330
3A0
100
AcDbEntity
  8
Bemaßungen_TC_020513_DIN_
  6
Continuous
 62
     7
100
AcDbLine
 10
496.1818451553941
 20
162.6405786136
 30
0.0
 11
530.1818451553937
 21
162.6405786136
 31
0.0
  0
LINE
  5
3A5
330
3A0
100
AcDbEntity
  8
Bemaßungen_TC_020513_DIN_
  6
Continuous
 62
     7
100
AcDbLine
 10
496.181845155395
 20
168.6405786136
 30
0.0
 11
530.1818451553937
 21
168.6405786136
 31
0.0
  0
SOLID
  5
3A6
330
3A0
100
AcDbEntity
  8
Bemaßungen_TC_020513_DIN_
 62
     7
100
AcDbTrace
 10
526.8401076433307
 20
157.6405786136
 30
0.0
 11
525.5235826674567
 21
157.6405786136
 31
0.0
 12
526.1818451553937
 22
162.6405786136
 32
0.0
 13
526.1818451553937
 23
162.6405786136
 33
0.0
  0
SOLID
  5
3A7
330
3A0
100
AcDbEntity
  8
Bemaßungen_TC_020513_DIN_
 62
     7
100
AcDbTrace
 10
525.5235826674567
 20
173.6405786136
 30
0.0
 11
526.8401076433307
 21
173.6405786136
 31
0.0
 12
526.1818451553937
 22
168.6405786136
 32
0.0
 13
526.1818451553937
 23
168.6405786136
 33
0.0
  0
MTEXT
  5
3A8
330
3A0
100
AcDbEntity
  8
Bemaßungen_TC_020513_DIN_
 62
     7
100
AcDbMText
 10
520.8641715859965
 20
164.79952813611
 30
0.0
 40
7.0
 41
0.0
 71
     7
 72
     1
  1
6
  7
CONVERTER_16
 11
0.0
 21
1.0
 31
0.0
 73
     1
 44
0.60024009603842
  0
ENDBLK
  5
3AA
330
3A0
100
AcDbEntity
  8
0
100
AcDbBlockEnd
  0
BLOCK
  5
3B4
330
3AD
100
AcDbEntity
  8
0
100
AcDbBlockBegin
  2
*D11
 70
     1
 10
0.0
 20
0.0
 30
0.0
  3
*D11
  1

  0
LINE
  5
3AE
330
3AD
100
AcDbEntity
  8
Bemaßungen_TC_020513_DIN_
  6
Continuous
 62
     7
100
AcDbLine
 10
499.181845155396
 20
134.1405994848168
 30
0.0
 11
453.681845155396
 21
134.1405994848168
 31
0.0
  0
LINE
  5
3AF
330
3AD
100
AcDbEntity
  8
Bemaßungen_TC_020513_DIN_
  6
Continuous
 62
     7
100
AcDbLine
 10
499.181845155396
 20
160.6405786136
 30
0.0
 11
499.181845155396
 21
130.1405994848168
 31
0.0
  0
LINE
  5
3B0
330
3AD
100
AcDbEntity
  8
Bemaßungen_TC_020513_DIN_
  6
Continuous
 62
     7
100
AcDbLine
 10
453.681845155396
 20
160.6405786136
 30
0.0
 11
453.681845155396
 21
130.1405994848168
 31
0.0
  0
SOLID
  5
3B1
330
3AD
100
AcDbEntity
  8
Bemaßungen_TC_020513_DIN_
 62
     7
100
AcDbTrace
 10
494.181845155396
 20
133.4823369968798
 30
0.0
 11
494.181845155396
 21
134.7988619727537
 31
0.0
 12
499.181845155396
 22
134.1405994848168
 32
0.0
 13
499.181845155396
 23
134.1405994848168
 33
0.0
  0
SOLID
  5
3B2
330
3AD
100
AcDbEntity
  8
Bemaßungen_TC_020513_DIN_
 62
     7
100
AcDbTrace
 10
458.681845155396
 20
134.7988619727537
 30
0.0
 11
458.681845155396
 21
133.4823369968798
 31
0.0
 12
453.681845155396
 22
134.1405994848168
 32
0.0
 13
453.681845155396
 23
134.1405994848168
 33
0.0
  0
MTEXT
  5
3B3
330
3AD
100
AcDbEntity
  8
Bemaßungen_TC_020513_DIN_
 62
     7
100
AcDbMText
 10
473.4383239553081
 20
141.7397141602084
 30
0.0
 40
7.0
 41
0.0
 71
     7
 72
     1
  1
45,5
  7
CONVERTER_16
 11
0.9999999999882478
 21
4.848136811095759E-6
 31
0.0
 73
     1
 44
0.60024009603842
  0
ENDBLK
  5
3B5
330
3AD
100
AcDbEntity
  8
0
100
AcDbBlockEnd
  0
BLOCK
  5
3BF
330
3B8
100
AcDbEntity
  8
0
100
AcDbBlockBegin
  2
*D12
 70
     1
 10
0.0
 20
0.0
 30
0.0
  3
*D12
  1

  0
LINE
  5
3B9
330
3B8
100
AcDbEntity
  8
Bemaßungen_TC_020513_DIN_
  6
Continuous
 62
     7
100
AcDbLine
 10
368.5605214890051
 20
134.1406047026236
 30
0.0
 11
226.060521489006
 21
134.1406047026236
 31
0.0
  0
LINE
  5
3BA
330
3B8
100
AcDbEntity
  8
Bemaßungen_TC_020513_DIN_
  6
Continuous
 62
     7
100
AcDbLine
 10
368.5605214890051
 20
164.1405786136001
 30
0.0
 11
368.5605214890051
 21
130.1406047026236
 31
0.0
  0
LINE
  5
3BB
330
3B8
100
AcDbEntity
  8
Bemaßungen_TC_020513_DIN_
  6
Continuous
 62
     7
100
AcDbLine
 10
226.060521489006
 20
160.6405786136001
 30
0.0
 11
226.060521489006
 21
130.1406047026236
 31
0.0
  0
SOLID
  5
3BC
330
3B8
100
AcDbEntity
  8
Bemaßungen_TC_020513_DIN_
 62
     7
100
AcDbTrace
 10
363.5605214890051
 20
133.4823422146866
 30
0.0
 11
363.5605214890051
 21
134.7988671905605
 31
0.0
 12
368.5605214890051
 22
134.1406047026236
 32
0.0
 13
368.5605214890051
 23
134.1406047026236
 33
0.0
  0
SOLID
  5
3BD
330
3B8
100
AcDbEntity
  8
Bemaßungen_TC_020513_DIN_
 62
     7
100
AcDbTrace
 10
231.060521489006
 20
134.7988671905605
 30
0.0
 11
231.060521489006
 21
133.4823422146866
 31
0.0
 12
226.060521489006
 22
134.1406047026236
 32
0.0
 13
226.060521489006
 23
134.1406047026236
 33
0.0
  0
MTEXT
  5
3BE
330
3B8
100
AcDbEntity
  8
Bemaßungen_TC_020513_DIN_
 62
     7
100
AcDbMText
 10
293.421356856826
 20
141.7683598697887
 30
0.0
 40
7.0
 41
0.0
 71
     7
 72
     1
  1
142,5
  7
CONVERTER_16
 11
0.9999999999882478
 21
4.848136811095759E-6
 31
0.0
 73
     1
 44
0.60024009603842
  0
ENDBLK
  5
3C0
330
3B8
100
AcDbEntity
  8
0
100
AcDbBlockEnd
  0
ENDSEC
  0
SECTION
  2
ENTITIES
  0
INSERT
  5
55
330
1F
100
AcDbEntity
  8
Bemaßungen_TC_020513_DIN_
100
AcDbBlockReference
  2
_D19
 10
0.0
 20
0.0
 30
0.0
  0
INSERT
  5
56
330
1F
100
AcDbEntity
  8
0
100
AcDbBlockReference
  2
Schriftfelder_Ilme
 10
174.039620099394
 20
-0.0012801852525
 30
0.0
 41
2.0
 42
2.0
 43
2.0
  0
INSERT
  5
57
330
1F
100
AcDbEntity
  8
0
100
AcDbBlockReference
  2
Ränder_Ilme_Rahmen_A4_quer
 10
0.0
 20
0.0
 30
0.0
 41
2.0
 42
2.0
 43
2.0
  0
POINT
  5
119
330
1F
100
AcDbEntity
  8
Bemaßungen_TC_020513_DIN_
 62
     7
100
AcDbPoint
 10
123.76002310452
 20
169.461804779764
 30
0.0
  0
POINT
  5
11A
330
1F
100
AcDbEntity
  8
Bemaßungen_TC_020513_DIN_
 62
     7
100
AcDbPoint
 10
123.76002310452
 20
299.461804779764
 30
0.0
  0
POINT
  5
11B
330
1F
100
AcDbEntity
  8
Bemaßungen_TC_020513_DIN_
 62
     7
100
AcDbPoint
 10
123.76002310452
 20
299.461804779764
 30
0.0
  0
POINT
  5
11C
330
1F
100
AcDbEntity
  8
Bemaßungen_TC_020513_DIN_
 62
     7
100
AcDbPoint
 10
91.7600231045204
 20
299.461804779764
 30
0.0
  0
POINT
  5
11D
330
1F
100
AcDbEntity
  8
Bemaßungen_TC_020513_DIN_
 62
     7
100
AcDbPoint
 10
89.2600231045204
 20
178.461804779764
 30
0.0
  0
POINT
  5
11E
330
1F
100
AcDbEntity
  8
Bemaßungen_TC_020513_DIN_
 62
     7
100
AcDbPoint
 10
89.2600231045204
 20
290.461804779764
 30
0.0
  0
POINT
  5
11F
330
1F
100
AcDbEntity
  8
Bemaßungen_TC_020513_DIN_
 62
     7
100
AcDbPoint
 10
126.26002310452
 20
178.461804779764
 30
0.0
  0
POINT
  5
120
330
1F
100
AcDbEntity
  8
Bemaßungen_TC_020513_DIN_
 62
     7
100
AcDbPoint
 10
89.2600231045204
 20
178.461804779764
 30
0.0
  0
POINT
  5
121
330
1F
100
AcDbEntity
  8
Bemaßungen_TC_020513_DIN_
 62
     7
100
AcDbPoint
 10
504.681845155404
 20
184.3905786136
 30
0.0
  0
POINT
  5
122
330
1F
100
AcDbEntity
  8
Bemaßungen_TC_020513_DIN_
 62
     7
100
AcDbPoint
 10
428.681845155398
 20
242.1405786136
 30
0.0
  0
POINT
  5
123
330
1F
100
AcDbEntity
  8
Bemaßungen_TC_020513_DIN_
 62
     7
100
AcDbPoint
 10
494.181845155394
 20
162.6405786136
 30
0.0
  0
POINT
  5
124
330
1F
100
AcDbEntity
  8
Bemaßungen_TC_020513_DIN_
 62
     7
100
AcDbPoint
 10
492.431845155398
 20
191.6405786136
 30
0.0
  0
POINT
  5
125
330
1F
100
AcDbEntity
  8
Bemaßungen_TC_020513_DIN_
 62
     7
100
AcDbPoint
 10
494.181845155394
 20
162.6405786136
 30
0.0
  0
POINT
  5
126
330
1F
100
AcDbEntity
  8
Bemaßungen_TC_020513_DIN_
 62
     7
100
AcDbPoint
 10
494.181845155395
 20
168.6405786136
 30
0.0
  0
POINT
  5
127
330
1F
100
AcDbEntity
  8
Bemaßungen_TC_020513_DIN_
 62
     7
100
AcDbPoint
 10
499.181845155396
 20
162.6405786136
 30
0.0
  0
POINT
  5
128
330
1F
100
AcDbEntity
  8
Bemaßungen_TC_020513_DIN_
 62
     7
100
AcDbPoint
 10
453.681845155396
 20
162.6405786136
 30
0.0
  0
POINT
  5
129
330
1F
100
AcDbEntity
  8
Bemaßungen_TC_020513_DIN_
 62
     7
100
AcDbPoint
 10
368.560521489005
 20
166.1405786136
 30
0.0
  0
POINT
  5
12A
330
1F
100
AcDbEntity
  8
Bemaßungen_TC_020513_DIN_
 62
     7
100
AcDbPoint
 10
226.060521489006
 20
162.6405786136
 30
0.0
  0
POINT
  5
12B
330
1F
100
AcDbEntity
  8
Bemaßungen_TC_020513_DIN_
 62
     7
100
AcDbPoint
 10
123.76002310452
 20
169.461804779764
 30
0.0
  0
POINT
  5
12C
330
1F
100
AcDbEntity
  8
Bemaßungen_TC_020513_DIN_
 62
     7
100
AcDbPoint
 10
123.76002310452
 20
299.461804779764
 30
0.0
  0
POINT
  5
12D
330
1F
100
AcDbEntity
  8
Bemaßungen_TC_020513_DIN_
 62
     7
100
AcDbPoint
 10
123.76002310452
 20
299.461804779764
 30
0.0
  0
POINT
  5
12E
330
1F
100
AcDbEntity
  8
Bemaßungen_TC_020513_DIN_
 62
     7
100
AcDbPoint
 10
91.7600231045204
 20
299.461804779764
 30
0.0
  0
POINT
  5
12F
330
1F
100
AcDbEntity
  8
Bemaßungen_TC_020513_DIN_
 62
     7
100
AcDbPoint
 10
89.2600231045204
 20
178.461804779764
 30
0.0
  0
POINT
  5
130
330
1F
100
AcDbEntity
  8
Bemaßungen_TC_020513_DIN_
 62
     7
100
AcDbPoint
 10
89.2600231045204
 20
290.461804779764
 30
0.0
  0
POINT
  5
131
330
1F
100
AcDbEntity
  8
Bemaßungen_TC_020513_DIN_
 62
     7
100
AcDbPoint
 10
126.26002310452
 20
178.461804779764
 30
0.0
  0
POINT
  5
132
330
1F
100
AcDbEntity
  8
Bemaßungen_TC_020513_DIN_
 62
     7
100
AcDbPoint
 10
89.2600231045204
 20
178.461804779764
 30
0.0
  0
POINT
  5
133
330
1F
100
AcDbEntity
  8
Bemaßungen_TC_020513_DIN_
 62
     7
100
AcDbPoint
 10
504.681845155404
 20
184.3905786136
 30
0.0
  0
POINT
  5
134
330
1F
100
AcDbEntity
  8
Bemaßungen_TC_020513_DIN_
 62
     7
100
AcDbPoint
 10
428.681845155398
 20
242.1405786136
 30
0.0
  0
POINT
  5
135
330
1F
100
AcDbEntity
  8
Bemaßungen_TC_020513_DIN_
 62
     7
100
AcDbPoint
 10
494.181845155394
 20
162.6405786136
 30
0.0
  0
POINT
  5
136
330
1F
100
AcDbEntity
  8
Bemaßungen_TC_020513_DIN_
 62
     7
100
AcDbPoint
 10
492.431845155398
 20
191.6405786136
 30
0.0
  0
POINT
  5
137
330
1F
100
AcDbEntity
  8
Bemaßungen_TC_020513_DIN_
 62
     7
100
AcDbPoint
 10
494.181845155394
 20
162.6405786136
 30
0.0
  0
POINT
  5
138
330
1F
100
AcDbEntity
  8
Bemaßungen_TC_020513_DIN_
 62
     7
100
AcDbPoint
 10
494.181845155395
 20
168.6405786136
 30
0.0
  0
POINT
  5
139
330
1F
100
AcDbEntity
  8
Bemaßungen_TC_020513_DIN_
 62
     7
100
AcDbPoint
 10
499.181845155396
 20
162.6405786136
 30
0.0
  0
POINT
  5
13A
330
1F
100
AcDbEntity
  8
Bemaßungen_TC_020513_DIN_
 62
     7
100
AcDbPoint
 10
453.681845155396
 20
162.6405786136
 30
0.0
  0
POINT
  5
13B
330
1F
100
AcDbEntity
  8
Bemaßungen_TC_020513_DIN_
 62
     7
100
AcDbPoint
 10
368.560521489005
 20
166.1405786136
 30
0.0
  0
POINT
  5
13C
330
1F
100
AcDbEntity
  8
Bemaßungen_TC_020513_DIN_
 62
     7
100
AcDbPoint
 10
226.060521489006
 20
162.6405786136
 30
0.0
  0
SPLINE
  5
24C
330
1F
100
AcDbEntity
  8
Sichtbare_Kanten_TC_020513_DIN_
  6
Continuous
 62
     7
100
AcDbSpline
210
0.0
220
0.0
230
1.0
 70
     8
 71
     3
 72
    31
 73
    27
 74
    25
 42
0.0000000001
 43
0.0000000001
 44
0.00000001
 40
0.0
 40
0.0
 40
0.0
 40
0.0
 40
0.1219910706649635
 40
0.2439821410936439
 40
0.2744927928496017
 40
0.3049982776884671
 40
0.3355060166824609
 40
0.366015010458379
 40
0.3964962447167315
 40
0.4269772475013602
 40
0.4574582426062447
 40
0.4879391834888021
 40
0.5183893168391926
 40
0.5488395626254051
 40
0.5792897866859862
 40
0.6097398870055307
 40
0.6401590604007337
 40
0.6705782787844918
 40
0.7009974709634672
 40
0.7314168909976678
 40
0.7618097924734781
 40
0.7922013982121026
 40
0.822590677816174
 40
0.8529852577140319
 40
0.9743051842866366
 40
1.095625110607654
 40
1.095625110607654
 40
1.095625110607654
 40
1.095625110607654
 10
292.010521489006
 20
195.467795332313
 30
0.0
 10
291.9698119496147
 20
195.465766639972
 30
0.0
 10
291.8883928709112
 20
195.4617092552942
 30
0.0
 10
291.7994748063095
 20
195.4369765130781
 30
0.0
 10
291.742567121669
 20
195.4150432369999
 30
0.0
 10
291.7146063589103
 20
195.4028034362195
 30
0.0
 10
291.6872047407742
 20
195.3893738861217
 30
0.0
 10
291.6604191720051
 20
195.3747672177805
 30
0.0
 10
291.6343033859584
 20
195.3590124755587
 30
0.0
 10
291.6089049828049
 20
195.3421422570382
 30
0.0
 10
291.5842638325012
 20
195.3241842722164
 30
0.0
 10
291.5604359074374
 20
195.3051768209299
 30
0.0
 10
291.5374687037119
 20
195.2851534545679
 30
0.0
 10
291.5154031023683
 20
195.2641555849887
 30
0.0
 10
291.4942730573572
 20
195.2422165180285
 30
0.0
 10
291.4741272616916
 20
195.2193840453505
 30
0.0
 10
291.4550067378802
 20
195.1956996506946
 30
0.0
 10
291.4369444502663
 20
195.1712115288684
 30
0.0
 10
291.4199677990081
 20
195.1459584901643
 30
0.0
 10
291.4041160215694
 20
195.1199949505034
 30
0.0
 10
291.3894216026954
 20
195.0933692152108
 30
0.0
 10
291.3759131076469
 20
195.0661359377306
 30
0.0
 10
291.3635962137303
 20
195.0383357795574
 30
0.0
 10
291.3415431983875
 20
194.9817979409755
 30
0.0
 10
291.3166512431571
 20
194.893416092961
 30
0.0
 10
291.3125647403876
 20
194.812442627997
 30
0.0
 10
291.310521489005
 20
194.771955895557
 30
0.0
 11
292.010521489006
 21
195.467795332313
 31
0.0
 11
291.8889889980709
 21
195.4572276944926
 31
0.0
 11
291.7711073886777
 21
195.4258310795287
 31
0.0
 11
291.7426487599241
 21
195.4148307922581
 31
0.0
 11
291.7147001446085
 21
195.4026054289834
 31
0.0
 11
291.6873066071637
 21
195.3891772405431
 31
0.0
 11
291.6605214890055
 21
195.3745705247429
 31
0.0
 11
291.6344215524354
 21
195.3588257175688
 31
0.0
 11
291.6090311760112
 21
195.3419609520563
 31
0.0
 11
291.5843980145208
 21
195.3240082804564
 31
0.0
 11
291.5605701622254
 21
195.3049998293866
 31
0.0
 11
291.5376177117327
 21
195.2849899408952
 31
0.0
 11
291.5155590221871
 21
195.2639987121562
 31
0.0
 11
291.4944359283368
 21
195.2420662920543
 31
0.0
 11
291.4742903788224
 21
195.2192328638352
 31
0.0
 11
291.4551820407905
 21
195.1955643715362
 31
0.0
 11
291.4371253923384
 21
195.171084046911
 31
0.0
 11
291.4201545570384
 21
195.145838888919
 31
0.0
 11
291.4043037063568
 21
195.1198756139352
 31
0.0
 11
291.3896182533644
 21
195.0932661056623
 31
0.0
 11
291.3761114108274
 21
195.0660408434219
 31
0.0
 11
291.3638094636794
 21
195.0382528889952
 31
0.0
 11
291.352736654455
 21
195.0099469994482
 31
0.0
 11
291.3211598543279
 21
194.8928084905055
 31
0.0
 11
291.310521489005
 21
194.771955895557
 31
0.0
  0
SPLINE
  5
24D
330
1F
100
AcDbEntity
  8
Sichtbare_Kanten_TC_020513_DIN_
  6
Continuous
 62
     7
100
AcDbSpline
210
0.0
220
0.0
230
1.0
 70
     8
 71
     3
 72
    31
 73
    27
 74
    25
 42
0.0000000001
 43
0.0000000001
 44
0.00000001
 40
0.0
 40
0.0
 40
0.0
 40
0.0
 40
0.1213199263210178
 40
0.2426398528936922
 40
0.27303443279145
 40
0.3034237123954264
 40
0.3338153181339755
 40
0.3642082196096013
 40
0.3946276396439932
 40
0.425046831823206
 40
0.4554660502070317
 40
0.485885223602306
 40
0.5163353239217754
 40
0.5467855479821563
 40
0.5772357937681629
 40
0.6076859271182723
 40
0.6381668680007585
 40
0.6686478631057349
 40
0.6991288658906794
 40
0.7296101001491871
 40
0.7601190939251325
 40
0.7906268329191158
 40
0.8211323177580041
 40
0.8516429695140866
 40
0.9736340399423201
 40
1.095625110606722
 40
1.095625110606722
 40
1.095625110606722
 40
1.095625110606722
 10
303.310521489006
 20
194.771955895557
 30
0.0
 10
303.3084782376233
 20
194.812442627997
 30
0.0
 10
303.3043917348538
 20
194.8934160929611
 30
0.0
 10
303.2794997796237
 20
194.9817979409756
 30
0.0
 10
303.2574467642806
 20
195.0383357795573
 30
0.0
 10
303.2451298703641
 20
195.0661359377305
 30
0.0
 10
303.2316213753162
 20
195.0933692152108
 30
0.0
 10
303.2169269564422
 20
195.1199949505036
 30
0.0
 10
303.2010751790035
 20
195.1459584901644
 30
0.0
 10
303.1840985277447
 20
195.1712115288684
 30
0.0
 10
303.1660362401308
 20
195.1956996506947
 30
0.0
 10
303.1469157163193
 20
195.2193840453506
 30
0.0
 10
303.1267699206538
 20
195.2422165180285
 30
0.0
 10
303.1056398756429
 20
195.2641555849886
 30
0.0
 10
303.0835742742997
 20
195.2851534545679
 30
0.0
 10
303.0606070705745
 20
195.3051768209299
 30
0.0
 10
303.0367791455107
 20
195.3241842722165
 30
0.0
 10
303.012137995207
 20
195.3421422570383
 30
0.0
 10
302.986739592053
 20
195.3590124755586
 30
0.0
 10
302.9606238060062
 20
195.3747672177802
 30
0.0
 10
302.9338382372368
 20
195.3893738861213
 30
0.0
 10
302.9064366191006
 20
195.4028034362187
 30
0.0
 10
302.8784758563419
 20
195.4150432369993
 30
0.0
 10
302.8215681717015
 20
195.4369765130778
 30
0.0
 10
302.7326501071003
 20
195.4617092552942
 30
0.0
 10
302.6512310283971
 20
195.4657666399721
 30
0.0
 10
302.610521489006
 20
195.467795332313
 30
0.0
 11
303.310521489006
 21
194.771955895557
 31
0.0
 11
303.2998831236831
 21
194.8928084905055
 31
0.0
 11
303.2683063235559
 21
195.0099469994483
 31
0.0
 11
303.2572335143316
 21
195.0382528889952
 31
0.0
 11
303.2449315671838
 21
195.0660408434219
 31
0.0
 11
303.2314247246471
 21
195.0932661056623
 31
0.0
 11
303.2167392716549
 21
195.1198756139351
 31
0.0
 11
303.2008884209731
 21
195.145838888919
 31
0.0
 11
303.1839175856727
 21
195.1710840469111
 31
0.0
 11
303.1658609372205
 21
195.1955643715363
 31
0.0
 11
303.1467525991885
 21
195.2192328638352
 31
0.0
 11
303.1266070496742
 21
195.2420662920543
 31
0.0
 11
303.1054839558241
 21
195.2639987121562
 31
0.0
 11
303.0834252662788
 21
195.2849899408951
 31
0.0
 11
303.0604728157865
 21
195.3049998293866
 31
0.0
 11
303.0366449634911
 21
195.3240082804564
 31
0.0
 11
303.0120118020007
 21
195.3419609520563
 31
0.0
 11
302.9866214255761
 21
195.3588257175688
 31
0.0
 11
302.9605214890057
 21
195.3745705247427
 31
0.0
 11
302.9337363708473
 21
195.3891772405427
 31
0.0
 11
302.9063428334024
 21
195.4026054289827
 31
0.0
 11
302.8783942180868
 21
195.4148307922574
 31
0.0
 11
302.8499355893331
 21
195.4258310795282
 31
0.0
 11
302.7320539799405
 21
195.4572276944926
 31
0.0
 11
302.610521489006
 21
195.467795332313
 31
0.0
  0
SPLINE
  5
24E
330
1F
100
AcDbEntity
  8
Sichtbare_Kanten_TC_020513_DIN_
  6
Continuous
 62
     7
100
AcDbSpline
210
0.0
220
0.0
230
1.0
 70
     8
 71
     3
 72
    31
 73
    27
 74
    25
 42
0.0000000001
 43
0.0000000001
 44
0.00000001
 40
0.0
 40
0.0
 40
0.0
 40
0.0
 40
0.1213199263210411
 40
0.2426398528936881
 40
0.273034432791493
 40
0.3034237123954955
 40
0.3338153181340442
 40
0.3642082196095902
 40
0.3946276396440009
 40
0.4250468318232455
 40
0.4554660502069808
 40
0.4858852236023265
 40
0.5163353239217695
 40
0.5467855479822906
 40
0.577235793768603
 40
0.6076859271189453
 40
0.6381668680012628
 40
0.6686478631059176
 40
0.6991288658906886
 40
0.7296101001490503
 40
0.7601190939250819
 40
0.7906268329190652
 40
0.8211323177579648
 40
0.8516429695140473
 40
0.9736340399420539
 40
1.095625110606611
 40
1.095625110606611
 40
1.095625110606611
 40
1.095625110606611
 10
303.310521489006
 20
194.717522458131
 30
0.0
 10
303.3084782376234
 20
194.758009190571
 30
0.0
 10
303.3043917348539
 20
194.8389826555351
 30
0.0
 10
303.2794997796236
 20
194.9273645035495
 30
0.0
 10
303.2574467642807
 20
194.9839023421314
 30
0.0
 10
303.2451298703643
 20
195.0117025003046
 30
0.0
 10
303.231621375316
 20
195.0389357777847
 30
0.0
 10
303.2169269564421
 20
195.0655615130775
 30
0.0
 10
303.2010751790035
 20
195.0915250527384
 30
0.0
 10
303.1840985277448
 20
195.1167780914423
 30
0.0
 10
303.1660362401309
 20
195.1412662132688
 30
0.0
 10
303.1469157163192
 20
195.1649506079245
 30
0.0
 10
303.1267699206538
 20
195.1877830806025
 30
0.0
 10
303.1056398756427
 20
195.2097221475627
 30
0.0
 10
303.0835742742991
 20
195.2307200171419
 30
0.0
 10
303.0606070705738
 20
195.2507433835038
 30
0.0
 10
303.03677914551
 20
195.2697508347905
 30
0.0
 10
303.0121379952068
 20
195.2877088196124
 30
0.0
 10
302.9867395920529
 20
195.3045790381326
 30
0.0
 10
302.9606238060063
 20
195.3203337803543
 30
0.0
 10
302.9338382372368
 20
195.3349404486952
 30
0.0
 10
302.9064366191005
 20
195.3483699987927
 30
0.0
 10
302.878475856342
 20
195.3606097995733
 30
0.0
 10
302.8215681717015
 20
195.3825430756517
 30
0.0
 10
302.7326501071002
 20
195.4072758178675
 30
0.0
 10
302.651231028397
 20
195.4113332025458
 30
0.0
 10
302.610521489006
 20
195.413361894887
 30
0.0
 11
303.310521489006
 21
194.717522458131
 31
0.0
 11
303.2998831236832
 21
194.8383750530795
 31
0.0
 11
303.268306323556
 21
194.9555135620222
 31
0.0
 11
303.2572335143316
 21
194.9838194515692
 31
0.0
 11
303.2449315671838
 21
195.0116074059959
 31
0.0
 11
303.231424724647
 21
195.0388326682362
 31
0.0
 11
303.2167392716549
 21
195.0654421765091
 31
0.0
 11
303.2008884209731
 21
195.091405451493
 31
0.0
 11
303.1839175856727
 21
195.1166506094851
 31
0.0
 11
303.1658609372206
 21
195.1411309341103
 31
0.0
 11
303.1467525991885
 21
195.1647994264092
 31
0.0
 11
303.1266070496742
 21
195.1876328546282
 31
0.0
 11
303.1054839558239
 21
195.2095652747302
 31
0.0
 11
303.0834252662783
 21
195.2305565034692
 31
0.0
 11
303.0604728157857
 21
195.2505663919607
 31
0.0
 11
303.0366449634905
 21
195.2695748430304
 31
0.0
 11
303.0120118020005
 21
195.2875275146303
 31
0.0
 11
302.986621425576
 21
195.3043922801428
 31
0.0
 11
302.9605214890058
 21
195.3201370873167
 31
0.0
 11
302.9337363708473
 21
195.3347438031166
 31
0.0
 11
302.9063428334024
 21
195.3481719915567
 31
0.0
 11
302.8783942180868
 21
195.3603973548314
 31
0.0
 11
302.8499355893331
 21
195.3713976421022
 31
0.0
 11
302.7320539799406
 21
195.4027942570661
 31
0.0
 11
302.610521489006
 21
195.413361894887
 31
0.0
  0
SPLINE
  5
24F
330
1F
100
AcDbEntity
  8
Sichtbare_Kanten_TC_020513_DIN_
  6
Continuous
 62
     7
100
AcDbSpline
210
0.0
220
0.0
230
1.0
 70
     8
 71
     3
 72
    31
 73
    27
 74
    25
 42
0.0000000001
 43
0.0000000001
 44
0.00000001
 40
0.0
 40
0.0
 40
0.0
 40
0.0
 40
0.1219910706649167
 40
0.2439821410937618
 40
0.2744927928497708
 40
0.3049982776886184
 40
0.3355060166825256
 40
0.3660150104582396
 40
0.3964962447163572
 40
0.4269772475008601
 40
0.4574582426058451
 40
0.4879391834886151
 40
0.518389316839075
 40
0.5488395626253071
 40
0.5792897866859071
 40
0.6097398870053927
 40
0.640159060400645
 40
0.670578278784414
 40
0.7009974709636033
 40
0.7314168909979952
 40
0.7618097924736708
 40
0.7922013982122451
 40
0.8225906778162476
 40
0.8529852577140318
 40
0.9743051842866935
 40
1.095625110607673
 40
1.095625110607673
 40
1.095625110607673
 40
1.095625110607673
 10
292.010521489006
 20
195.413361894887
 30
0.0
 10
291.9698119496148
 20
195.4113332025461
 30
0.0
 10
291.8883928709113
 20
195.4072758178682
 30
0.0
 10
291.7994748063094
 20
195.3825430756516
 30
0.0
 10
291.7425671216689
 20
195.3606097995733
 30
0.0
 10
291.7146063589104
 20
195.3483699987927
 30
0.0
 10
291.6872047407743
 20
195.3349404486954
 30
0.0
 10
291.660419172005
 20
195.3203337803544
 30
0.0
 10
291.6343033859584
 20
195.3045790381332
 30
0.0
 10
291.6089049828047
 20
195.2877088196128
 30
0.0
 10
291.5842638325013
 20
195.269750834791
 30
0.0
 10
291.5604359074374
 20
195.250743383504
 30
0.0
 10
291.5374687037119
 20
195.2307200171419
 30
0.0
 10
291.5154031023683
 20
195.2097221475626
 30
0.0
 10
291.4942730573573
 20
195.1877830806025
 30
0.0
 10
291.4741272616917
 20
195.1649506079246
 30
0.0
 10
291.4550067378801
 20
195.1412662132686
 30
0.0
 10
291.4369444502664
 20
195.1167780914425
 30
0.0
 10
291.4199677990075
 20
195.0915250527384
 30
0.0
 10
291.4041160215688
 20
195.0655615130775
 30
0.0
 10
291.3894216026949
 20
195.0389357777848
 30
0.0
 10
291.3759131076469
 20
195.0117025003046
 30
0.0
 10
291.3635962137303
 20
194.9839023421313
 30
0.0
 10
291.3415431983875
 20
194.9273645035494
 30
0.0
 10
291.3166512431569
 20
194.838982655535
 30
0.0
 10
291.3125647403876
 20
194.758009190571
 30
0.0
 10
291.310521489005
 20
194.717522458131
 30
0.0
 11
292.010521489006
 21
195.413361894887
 31
0.0
 11
291.888988998071
 21
195.4027942570665
 31
0.0
 11
291.7711073886777
 21
195.3713976421022
 31
0.0
 11
291.7426487599241
 21
195.3603973548314
 31
0.0
 11
291.7147001446086
 21
195.3481719915567
 31
0.0
 11
291.6873066071637
 21
195.3347438031167
 31
0.0
 11
291.6605214890055
 21
195.3201370873169
 31
0.0
 11
291.6344215524354
 21
195.3043922801432
 31
0.0
 11
291.6090311760112
 21
195.287527514631
 31
0.0
 11
291.5843980145208
 21
195.2695748430309
 31
0.0
 11
291.5605701622254
 21
195.2505663919608
 31
0.0
 11
291.5376177117328
 21
195.2305565034692
 31
0.0
 11
291.5155590221872
 21
195.2095652747302
 31
0.0
 11
291.4944359283368
 21
195.1876328546282
 31
0.0
 11
291.4742903788225
 21
195.1647994264092
 31
0.0
 11
291.4551820407905
 21
195.1411309341103
 31
0.0
 11
291.4371253923383
 21
195.1166506094851
 31
0.0
 11
291.420154557038
 21
195.091405451493
 31
0.0
 11
291.4043037063561
 21
195.0654421765092
 31
0.0
 11
291.3896182533639
 21
195.0388326682362
 31
0.0
 11
291.3761114108272
 21
195.0116074059959
 31
0.0
 11
291.3638094636793
 21
194.9838194515692
 31
0.0
 11
291.352736654455
 21
194.9555135620222
 31
0.0
 11
291.3211598543278
 21
194.8383750530795
 31
0.0
 11
291.310521489005
 21
194.717522458131
 31
0.0
  0
SPLINE
  5
250
330
1F
100
AcDbEntity
  8
Sichtbare_Kanten_TC_020513_DIN_
  6
Continuous
 62
     7
100
AcDbSpline
210
0.0
220
0.0
230
1.0
 70
     8
 71
     3
 72
    31
 73
    27
 74
    25
 42
0.0000000001
 43
0.0000000001
 44
0.00000001
 40
0.0
 40
0.0
 40
0.0
 40
0.0
 40
0.1755718895061932
 40
0.3511437785886687
 40
0.3950458466905322
 40
0.4389405077190534
 40
0.4828383977644052
 40
0.5267380851028045
 40
0.5705879263442423
 40
0.6144374339838766
 40
0.6582869245378505
 40
0.7021363354734309
 40
0.7459301297198994
 40
0.7897240835679848
 40
0.8335179982041341
 40
0.8773117328336079
 40
0.9210496535671602
 40
0.9647876372518456
 40
1.00852557686338
 40
1.052263843546827
 40
1.09595398434688
 40
1.139642253927401
 40
1.183327164566393
 40
1.22701972303055
 40
1.401380196441586
 40
1.57574066939594
 40
1.57574066939594
 40
1.57574066939594
 40
1.57574066939594
 10
306.310521489005
 20
195.3825750443
 30
0.0
 10
306.3076064646962
 20
195.4411647833135
 30
0.0
 10
306.3017764160855
 20
195.5583442611992
 30
0.0
 10
306.2662347132654
 20
195.6863253931791
 30
0.0
 10
306.2347120619729
 20
195.7682383794204
 30
0.0
 10
306.2171227904222
 20
195.8084812736688
 30
0.0
 10
306.1978227640388
 20
195.8479214151626
 30
0.0
 10
306.1768314055569
 20
195.8864739886704
 30
0.0
 10
306.1541905749504
 20
195.9240618827632
 30
0.0
 10
306.1299471732047
 20
195.9606167666221
 30
0.0
 10
306.1041389622919
 20
195.9960839721231
 30
0.0
 10
306.0768230025724
 20
196.0303798444309
 30
0.0
 10
306.0480476564849
 20
196.0634362032875
 30
0.0
 10
306.0178725523796
 20
196.0951943625198
 30
0.0
 10
305.9863427879918
 20
196.1256080434727
 30
0.0
 10
305.9535296189584
 20
196.1546043746544
 30
0.0
 10
305.9194928193248
 20
196.1821244304791
 30
0.0
 10
305.8843018304858
 20
196.2081209081077
 30
0.0
 10
305.8480093298344
 20
196.2325564211331
 30
0.0
 10
305.8106962408365
 20
196.2553724004682
 30
0.0
 10
305.7724321671305
 20
196.2765221488165
 30
0.0
 10
305.7332958808803
 20
196.2959646709522
 30
0.0
 10
305.6933428783079
 20
196.3136930958148
 30
0.0
 10
305.6120974650049
 20
196.3454318763083
 30
0.0
 10
305.4850842055779
 20
196.3812609591405
 30
0.0
 10
305.3687090611459
 20
196.387143566222
 30
0.0
 10
305.310521489006
 20
196.390084869759
 30
0.0
 11
306.310521489005
 21
195.3825750443
 31
0.0
 11
306.2953359538853
 21
195.5574889885924
 31
0.0
 11
306.2502141097915
 21
195.7271636992052
 31
0.0
 11
306.2344066709667
 21
195.7681211949956
 31
0.0
 11
306.2168380712566
 21
195.8083466293753
 31
0.0
 11
306.1975399503777
 21
195.8477751378556
 31
0.0
 11
306.1765468927897
 21
195.8863299570293
 31
0.0
 11
306.153921980605
 21
195.9238921977177
 31
0.0
 11
306.1296863550347
 21
195.9604355113804
 31
0.0
 11
306.1038857258938
 21
195.9958911929812
 31
0.0
 11
306.0765659321245
 21
196.0301898767431
 31
0.0
 11
306.0478123743995
 21
196.0632221236037
 31
0.0
 11
306.0176467638325
 21
196.0949702941458
 31
0.0
 11
305.9861265099251
 21
196.125373921442
 31
0.0
 11
305.9533090986917
 21
196.154372347481
 31
0.0
 11
305.9192980598672
 21
196.1818724374476
 31
0.0
 11
305.884118249069
 21
196.2078607449916
 31
0.0
 11
305.8478370550504
 21
196.2322878267259
 31
0.0
 11
305.8105214890056
 21
196.2551041477095
 31
0.0
 11
305.772283645936
 21
196.2762393259796
 31
0.0
 11
305.7331588745516
 21
196.2956794176218
 31
0.0
 11
305.6932234334695
 21
196.313386251419
 31
0.0
 11
305.6525416323311
 21
196.3293245926526
 31
0.0
 11
305.4842082198562
 21
196.3747716710259
 31
0.0
 11
305.310521489006
 21
196.390084869759
 31
0.0
  0
SPLINE
  5
251
330
1F
100
AcDbEntity
  8
Sichtbare_Kanten_TC_020513_DIN_
  6
Continuous
 62
     7
100
AcDbSpline
210
0.0
220
0.0
230
1.0
 70
     8
 71
     3
 72
    31
 73
    27
 74
    25
 42
0.0000000001
 43
0.0000000001
 44
0.00000001
 40
0.0
 40
0.0
 40
0.0
 40
0.0
 40
0.1743604729544303
 40
0.3487209463661328
 40
0.3924135048304069
 40
0.4360984154695542
 40
0.4797866850501643
 40
0.5234768258501042
 40
0.567215092533648
 40
0.6109530321452616
 40
0.6546910158299302
 40
0.6984289365635004
 40
0.7422226711928513
 40
0.7860165858290175
 40
0.8298105396771545
 40
0.8736043339235648
 40
0.9174537448591534
 40
0.9613032354131442
 40
1.005152743052707
 40
1.049002584294037
 40
1.092902271632439
 40
1.136800161677817
 40
1.180694822706319
 40
1.224596890808047
 40
1.400168779890565
 40
1.575740669396759
 40
1.575740669396759
 40
1.575740669396759
 40
1.575740669396759
 10
289.310521489006
 20
196.390084869759
 30
0.0
 10
289.2523339168662
 20
196.3871435662222
 30
0.0
 10
289.1359587724338
 20
196.381260959141
 30
0.0
 10
289.0089455130068
 20
196.3454318763083
 30
0.0
 10
288.9277000997033
 20
196.3136930958147
 30
0.0
 10
288.8877470971307
 20
196.2959646709522
 30
0.0
 10
288.8486108108805
 20
196.2765221488165
 30
0.0
 10
288.8103467371744
 20
196.2553724004681
 30
0.0
 10
288.7730336481766
 20
196.2325564211331
 30
0.0
 10
288.7367411475252
 20
196.2081209081077
 30
0.0
 10
288.7015501586861
 20
196.1821244304792
 30
0.0
 10
288.6675133590526
 20
196.1546043746544
 30
0.0
 10
288.6347001900192
 20
196.1256080434728
 30
0.0
 10
288.6031704256314
 20
196.0951943625196
 30
0.0
 10
288.5729953215266
 20
196.0634362032872
 30
0.0
 10
288.5442199754393
 20
196.0303798444301
 30
0.0
 10
288.5169040157197
 20
195.9960839721227
 30
0.0
 10
288.4910958048064
 20
195.9606167666219
 30
0.0
 10
288.4668524030605
 20
195.9240618827632
 30
0.0
 10
288.4442115724542
 20
195.8864739886704
 30
0.0
 10
288.4232202139721
 20
195.8479214151626
 30
0.0
 10
288.4039201875888
 20
195.8084812736688
 30
0.0
 10
288.3863309160383
 20
195.7682383794204
 30
0.0
 10
288.3548082647462
 20
195.6863253931789
 30
0.0
 10
288.3192665619259
 20
195.5583442611991
 30
0.0
 10
288.313436513315
 20
195.4411647833135
 30
0.0
 10
288.310521489006
 20
195.3825750443
 30
0.0
 11
289.310521489006
 21
196.390084869759
 31
0.0
 11
289.1368347581557
 21
196.3747716710263
 31
0.0
 11
288.9685013456802
 21
196.3293245926525
 31
0.0
 11
288.9278195445417
 21
196.3133862514189
 31
0.0
 11
288.8878841034595
 21
196.2956794176218
 31
0.0
 11
288.848759332075
 21
196.2762393259796
 31
0.0
 11
288.8105214890055
 21
196.2551041477095
 31
0.0
 11
288.7732059229605
 21
196.2322878267259
 31
0.0
 11
288.7369247289419
 21
196.2078607449916
 31
0.0
 11
288.7017449181437
 21
196.1818724374475
 31
0.0
 11
288.6677338793192
 21
196.1543723474809
 31
0.0
 11
288.6349164680859
 21
196.125373921442
 31
0.0
 11
288.6033962141786
 21
196.0949702941457
 31
0.0
 11
288.5732306036119
 21
196.0632221236033
 31
0.0
 11
288.5444770458872
 21
196.0301898767425
 31
0.0
 11
288.5171572521177
 21
195.9958911929807
 31
0.0
 11
288.4913566229764
 21
195.9604355113802
 31
0.0
 11
288.467120997406
 21
195.9238921977176
 31
0.0
 11
288.4444960852214
 21
195.8863299570293
 31
0.0
 11
288.4235030276333
 21
195.8477751378556
 31
0.0
 11
288.4042049067545
 21
195.8083466293753
 31
0.0
 11
288.3866363070445
 21
195.7681211949956
 31
0.0
 11
288.3708288682199
 21
195.7271636992052
 31
0.0
 11
288.325707024126
 21
195.5574889885923
 31
0.0
 11
288.310521489006
 21
195.3825750443
 31
0.0
  0
LWPOLYLINE
  5
252
330
1F
100
AcDbEntity
  8
Mittelpunktmarkierung_TC_020513_DIN_
  6
CHAIN
 62
     7
100
AcDbPolyline
 90
        2
 70
     0
 43
0.25
 10
91.7600231045204
 20
176.711804779764
 10
91.7600231045204
 20
162.211804779764
  0
LWPOLYLINE
  5
253
330
1F
100
AcDbEntity
  8
Mittelpunktmarkierung_TC_020513_DIN_
  6
CHAIN
 62
     7
100
AcDbPolyline
 90
        2
 70
     0
 43
0.25
 10
99.0100231045204
 20
169.461804779764
 10
84.5100231045204
 20
169.461804779764
  0
LWPOLYLINE
  5
254
330
1F
100
AcDbEntity
  8
Mittelpunktmarkierung_TC_020513_DIN_
  6
CHAIN
 62
     7
100
AcDbPolyline
 90
        2
 70
     0
 43
0.25
 10
123.76002310452
 20
176.711804779764
 10
123.76002310452
 20
162.211804779764
  0
LWPOLYLINE
  5
255
330
1F
100
AcDbEntity
  8
Mittelpunktmarkierung_TC_020513_DIN_
  6
CHAIN
 62
     7
100
AcDbPolyline
 90
        2
 70
     0
 43
0.25
 10
131.01002310452
 20
169.461804779764
 10
116.51002310452
 20
169.461804779764
  0
LWPOLYLINE
  5
256
330
1F
100
AcDbEntity
  8
Mittelpunktmarkierung_TC_020513_DIN_
  6
CHAIN
 62
     7
100
AcDbPolyline
 90
        2
 70
     0
 43
0.25
 10
123.76002310452
 20
306.711804779765
 10
123.76002310452
 20
296.211804779764
  0
LWPOLYLINE
  5
257
330
1F
100
AcDbEntity
  8
Mittelpunktmarkierung_TC_020513_DIN_
  6
CHAIN
 62
     7
100
AcDbPolyline
 90
        2
 70
     0
 43
0.25
 10
131.01002310452
 20
299.461804779764
 10
116.51002310452
 20
299.461804779764
  0
LWPOLYLINE
  5
258
330
1F
100
AcDbEntity
  8
Mittelpunktmarkierung_TC_020513_DIN_
  6
CHAIN
 62
     7
100
AcDbPolyline
 90
        2
 70
     0
 43
0.25
 10
91.7600231045204
 20
306.711804779765
 10
91.7600231045204
 20
296.211804779764
  0
LWPOLYLINE
  5
259
330
1F
100
AcDbEntity
  8
Mittelpunktmarkierung_TC_020513_DIN_
  6
CHAIN
 62
     7
100
AcDbPolyline
 90
        2
 70
     0
 43
0.25
 10
99.0100231045204
 20
299.461804779764
 10
84.5100231045204
 20
299.461804779764
  0
LWPOLYLINE
  5
25A
330
1F
100
AcDbEntity
  8
Mittellinie_TC_020513_DIN_
  6
CHAIN
 62
     7
100
AcDbPolyline
 90
        2
 70
     0
 43
0.25
 10
107.76002310452
 20
295.461804779764
 10
107.76002310452
 20
177.461804779764
  0
LWPOLYLINE
  5
25B
330
1F
100
AcDbEntity
  8
Mittellinie_TC_020513_DIN_
  6
CHAIN
 62
     7
100
AcDbPolyline
 90
        2
 70
     0
 43
0.25
 10
84.2600231045204
 20
234.461804779764
 10
131.26002310452
 20
234.461804779764
  0
LWPOLYLINE
  5
25C
330
1F
100
AcDbEntity
  8
Skizziergeometrie_TC_020513_DIN_
  6
Continuous
 62
     7
100
AcDbPolyline
 90
        2
 70
     0
 43
0.5
 10
89.2600231045204
 20
178.461804779764
 10
89.2600231045204
 20
290.461804779764
  0
LWPOLYLINE
  5
25D
330
1F
100
AcDbEntity
  8
Skizziergeometrie_TC_020513_DIN_
  6
Continuous
 62
     7
100
AcDbPolyline
 90
        2
 70
     0
 43
0.5
 10
126.26002310452
 20
178.461804779764
 10
89.2600231045204
 20
178.461804779764
  0
LWPOLYLINE
  5
25E
330
1F
100
AcDbEntity
  8
Skizziergeometrie_TC_020513_DIN_
  6
Continuous
 62
     7
100
AcDbPolyline
 90
        2
 70
     0
 43
0.5
 10
126.26002310452
 20
290.461804779764
 10
126.26002310452
 20
178.461804779764
  0
LWPOLYLINE
  5
25F
330
1F
100
AcDbEntity
  8
Skizziergeometrie_TC_020513_DIN_
  6
Continuous
 62
     7
100
AcDbPolyline
 90
        2
 70
     0
 43
0.5
 10
89.2600231045204
 20
290.461804779764
 10
126.26002310452
 20
290.461804779764
  0
LWPOLYLINE
  5
260
330
1F
100
AcDbEntity
  8
Mittellinie_TC_020513_DIN_
  6
CHAIN
 62
     7
100
AcDbPolyline
 90
        2
 70
     0
 43
0.25
 10
362.310521489005
 20
159.1405786136
 10
362.310521489005
 20
173.6405786136
  0
LWPOLYLINE
  5
261
330
1F
100
AcDbEntity
  8
Mittellinie_TC_020513_DIN_
  6
CHAIN
 62
     7
100
AcDbPolyline
 90
        2
 70
     0
 43
0.25
 10
492.431845155396
 20
159.1405786136
 10
492.431845155396
 20
173.6405786136
  0
LWPOLYLINE
  5
262
330
1F
100
AcDbEntity
  8
Mittellinie_TC_020513_DIN_
  6
CHAIN
 62
     7
100
AcDbPolyline
 90
        2
 70
     0
 43
0.25
 10
460.431845155396
 20
159.1405786136
 10
460.431845155396
 20
173.6405786136
  0
LWPOLYLINE
  5
263
330
1F
100
AcDbEntity
  8
Mittellinie_TC_020513_DIN_
  6
CHAIN
 62
     7
100
AcDbPolyline
 90
        2
 70
     0
 43
0.25
 10
476.431845155396
 20
157.6405786136
 10
476.431845155396
 20
194.980366400503
  0
LWPOLYLINE
  5
264
330
1F
100
AcDbEntity
  8
Mittellinie_TC_020513_DIN_
  6
CHAIN
 62
     7
100
AcDbPolyline
 90
        2
 70
     0
 43
0.25
 10
494.681845155404
 20
182.1405786136
 10
509.431845155404
 20
182.1405786136
  0
LWPOLYLINE
  5
265
330
1F
100
AcDbEntity
  8
Mittellinie_TC_020513_DIN_
  6
CHAIN
 62
     7
100
AcDbPolyline
 90
        2
 70
     0
 43
0.25
 10
443.431845155404
 20
182.1405786136
 10
458.181845155404
 20
182.1405786136
  0
LWPOLYLINE
  5
266
330
1F
100
AcDbEntity
  8
Mittellinie_TC_020513_DIN_
  6
CHAIN
 62
     7
100
AcDbPolyline
 90
        2
 70
     0
 43
0.25
 10
297.310521489006
 20
157.6405786136
 10
297.310521489004
 20
258.101431585065
  0
LWPOLYLINE
  5
267
330
1F
100
AcDbEntity
  8
Mittellinie_TC_020513_DIN_
  6
CHAIN
 62
     7
100
AcDbPolyline
 90
        2
 70
     0
 43
0.25
 10
232.310521489006
 20
159.1405786136
 10
232.310521489006
 20
173.6405786136
  0
LWPOLYLINE
  5
268
330
1F
100
AcDbEntity
  8
Mittelpunktmarkierung_TC_020513_DIN_
  6
CHAIN
 62
     7
100
AcDbPolyline
 90
        2
 70
     0
 43
0.25
 10
334.560521489006
 20
191.1405786136
 10
334.560521489006
 20
173.1405786136
  0
LWPOLYLINE
  5
269
330
1F
100
AcDbEntity
  8
Mittelpunktmarkierung_TC_020513_DIN_
  6
CHAIN
 62
     7
100
AcDbPolyline
 90
        2
 70
     0
 43
0.25
 10
343.560521489005
 20
182.1405786136
 10
325.560521489006
 20
182.1405786136
  0
LWPOLYLINE
  5
26A
330
1F
100
AcDbEntity
  8
Mittelpunktmarkierung_TC_020513_DIN_
  6
CHAIN
 62
     7
100
AcDbPolyline
 90
        2
 70
     0
 43
0.25
 10
260.060521489005
 20
191.1405786136
 10
260.060521489005
 20
173.1405786136
  0
LWPOLYLINE
  5
26B
330
1F
100
AcDbEntity
  8
Mittelpunktmarkierung_TC_020513_DIN_
  6
CHAIN
 62
     7
100
AcDbPolyline
 90
        2
 70
     0
 43
0.25
 10
269.060521489006
 20
182.1405786136
 10
251.060521489006
 20
182.1405786136
  0
LWPOLYLINE
  5
26C
330
1F
100
AcDbEntity
  8
Sichtbare_Kanten_TC_020513_DIN_
  6
Continuous
 62
     7
100
AcDbPolyline
 90
        2
 70
     0
 43
0.5
 10
437.181845155411
 20
195.1405786136
 10
437.181845155411
 20
165.6405786136
  0
LWPOLYLINE
  5
26D
330
1F
100
AcDbEntity
  8
Sichtbare_Kanten_TC_020513_DIN_
  6
Continuous
 62
     7
100
AcDbPolyline
 90
        2
 70
     0
 43
0.5
 10
438.181845155411
 20
164.6405786136
 10
452.681845155411
 20
164.6405786136
  0
LWPOLYLINE
  5
26E
330
1F
100
AcDbEntity
  8
Sichtbare_Kanten_TC_020513_DIN_
  6
Continuous
 62
     7
100
AcDbPolyline
 90
        2
 70
     0
 43
0.5
 10
452.681845155411
 20
165.1405786136
 10
452.681845155411
 20
164.6405786136
  0
LWPOLYLINE
  5
26F
330
1F
100
AcDbEntity
  8
Sichtbare_Kanten_TC_020513_DIN_
  6
Continuous
 62
     7
100
AcDbPolyline
 90
        2
 70
     0
 43
0.5
 10
446.131845155411
 20
196.1405786136
 10
438.181845155411
 20
196.1405786136
  0
LWPOLYLINE
  5
270
330
1F
100
AcDbEntity
  8
Sichtbare_Kanten_TC_020513_DIN_
  6
Continuous
 62
     7
100
AcDbPolyline
 90
        2
 70
     0
 43
0.5
 10
446.131845155411
 20
196.1405786136
 10
446.227083250649
 20
195.6405786136
  0
LWPOLYLINE
  5
271
330
1F
100
AcDbEntity
  8
Sichtbare_Kanten_TC_020513_DIN_
  6
Continuous
 62
     7
100
AcDbPolyline
 90
        2
 70
     0
 43
0.5
 10
446.227083250649
 20
195.6405786136
 10
448.131845155415
 20
185.6405786136
  0
LWPOLYLINE
  5
272
330
1F
100
AcDbEntity
  8
Sichtbare_Kanten_TC_020513_DIN_
  6
Continuous
 62
     7
100
AcDbPolyline
 90
        2
 70
     0
 43
0.5
 10
452.681845155411
 20
166.6405786136
 10
452.681845155411
 20
165.1405786136
  0
LWPOLYLINE
  5
273
330
1F
100
AcDbEntity
  8
Sichtbare_Kanten_TC_020513_DIN_
  6
Continuous
 62
     7
100
AcDbPolyline
 90
        2
 70
     0
 43
0.5
 10
448.131845155411
 20
166.6405786136
 10
448.131845155415
 20
185.6405786136
  0
LWPOLYLINE
  5
274
330
1F
100
AcDbEntity
  8
Sichtbare_Kanten_TC_020513_DIN_
  6
Continuous
 62
     7
100
AcDbPolyline
 90
        2
 70
     0
 43
0.5
 10
448.131845155415
 20
185.6405786136
 10
454.181845155414
 20
185.6405786136
  0
LWPOLYLINE
  5
275
330
1F
100
AcDbEntity
  8
Sichtbare_Kanten_TC_020513_DIN_
  6
Continuous
 62
     7
100
AcDbPolyline
 90
        2
 70
     0
 43
0.5
 10
448.131845155411
 20
166.6405786136
 10
452.681845155411
 20
166.6405786136
  0
LWPOLYLINE
  5
276
330
1F
100
AcDbEntity
  8
Sichtbare_Kanten_TC_020513_DIN_
  6
Continuous
 62
     7
100
AcDbPolyline
 90
        2
 70
     0
 43
0.5
 10
454.681845155399
 20
169.6405786136
 10
448.131845155412
 20
169.6405786136
  0
LWPOLYLINE
  5
277
330
1F
100
AcDbEntity
  8
Sichtbare_Kanten_TC_020513_DIN_
  6
Continuous
 62
     7
100
AcDbPolyline
 90
        2
 70
     0
 43
0.5
 10
454.681845155411
 20
166.6405786136
 10
452.681845155411
 20
166.6405786136
  0
LWPOLYLINE
  5
278
330
1F
100
AcDbEntity
  8
Sichtbare_Kanten_TC_020513_DIN_
  6
Continuous
 62
     7
100
AcDbPolyline
 90
        2
 70
     0
 43
0.5
 10
498.431845155399
 20
186.1405786136
 10
498.431845155399
 20
191.6405786136
  0
LWPOLYLINE
  5
279
330
1F
100
AcDbEntity
  8
Sichtbare_Kanten_TC_020513_DIN_
  6
Continuous
 62
     7
100
AcDbPolyline
 90
        2
 70
     0
 43
0.5
 10
492.431845155398
 20
186.1405786136
 10
498.431845155399
 20
186.1405786136
  0
LWPOLYLINE
  5
27A
330
1F
100
AcDbEntity
  8
Sichtbare_Kanten_TC_020513_DIN_
  6
Continuous
 62
     7
100
AcDbPolyline
 90
        2
 70
     0
 43
0.5
 10
492.431845155398
 20
186.1405786136
 10
460.431845155398
 20
186.1405786136
  0
LWPOLYLINE
  5
27B
330
1F
100
AcDbEntity
  8
Sichtbare_Kanten_TC_020513_DIN_
  6
Continuous
 62
     7
100
AcDbPolyline
 90
        2
 70
     0
 43
0.5
 10
454.431845155399
 20
186.1405786136
 10
460.431845155398
 20
186.1405786136
  0
LWPOLYLINE
  5
27C
330
1F
100
AcDbEntity
  8
Sichtbare_Kanten_TC_020513_DIN_
  6
Continuous
 62
     7
100
AcDbPolyline
 90
        2
 70
     0
 43
0.5
 10
454.431845155399
 20
186.1405786136
 10
454.431845155399
 20
191.6405786136
  0
LWPOLYLINE
  5
27D
330
1F
100
AcDbEntity
  8
Sichtbare_Kanten_TC_020513_DIN_
  6
Continuous
 62
     7
100
AcDbPolyline
 90
        2
 70
     0
 43
0.5
 10
492.431845155398
 20
191.6405786136
 10
498.431845155399
 20
191.6405786136
  0
LWPOLYLINE
  5
27E
330
1F
100
AcDbEntity
  8
Sichtbare_Kanten_TC_020513_DIN_
  6
Continuous
 62
     7
100
AcDbPolyline
 90
        2
 70
     0
 43
0.5
 10
492.431845155398
 20
191.6405786136
 10
460.431845155398
 20
191.6405786136
  0
LWPOLYLINE
  5
27F
330
1F
100
AcDbEntity
  8
Sichtbare_Kanten_TC_020513_DIN_
  6
Continuous
 62
     7
100
AcDbPolyline
 90
        2
 70
     0
 43
0.5
 10
454.431845155399
 20
191.6405786136
 10
460.431845155398
 20
191.6405786136
  0
LWPOLYLINE
  5
280
330
1F
100
AcDbEntity
  8
Sichtbare_Kanten_TC_020513_DIN_
  6
Continuous
 62
     7
100
AcDbPolyline
 90
        2
 70
     0
 43
0.5
 10
494.181845155394
 20
166.1405786136
 10
499.181845155396
 20
166.1405786136
  0
LWPOLYLINE
  5
281
330
1F
100
AcDbEntity
  8
Sichtbare_Kanten_TC_020513_DIN_
  6
Continuous
 62
     7
100
AcDbPolyline
 90
        2
 70
     0
 43
0.5
 10
494.181845155394
 20
166.1405786136
 10
458.681845155394
 20
166.1405786136
  0
LWPOLYLINE
  5
282
330
1F
100
AcDbEntity
  8
Sichtbare_Kanten_TC_020513_DIN_
  6
Continuous
 62
     7
100
AcDbPolyline
 90
        2
 70
     0
 43
0.5
 10
453.681845155396
 20
166.1405786136
 10
458.681845155394
 20
166.1405786136
  0
LWPOLYLINE
  5
283
330
1F
100
AcDbEntity
  8
Sichtbare_Kanten_TC_020513_DIN_
  6
Continuous
 62
     7
100
AcDbPolyline
 90
        2
 70
     0
 43
0.5
 10
499.181845155396
 20
162.6405786136
 10
499.181845155396
 20
166.1405786136
  0
LWPOLYLINE
  5
284
330
1F
100
AcDbEntity
  8
Sichtbare_Kanten_TC_020513_DIN_
  6
Continuous
 62
     7
100
AcDbPolyline
 90
        2
 70
     0
 43
0.5
 10
453.681845155396
 20
162.6405786136
 10
453.681845155396
 20
166.1405786136
  0
LWPOLYLINE
  5
285
330
1F
100
AcDbEntity
  8
Sichtbare_Kanten_TC_020513_DIN_
  6
Continuous
 62
     7
100
AcDbPolyline
 90
        2
 70
     0
 43
0.5
 10
453.681845155396
 20
162.6405786136
 10
458.681845155394
 20
162.6405786136
  0
LWPOLYLINE
  5
286
330
1F
100
AcDbEntity
  8
Sichtbare_Kanten_TC_020513_DIN_
  6
Continuous
 62
     7
100
AcDbPolyline
 90
        2
 70
     0
 43
0.5
 10
494.181845155394
 20
162.6405786136
 10
458.681845155394
 20
162.6405786136
  0
LWPOLYLINE
  5
287
330
1F
100
AcDbEntity
  8
Sichtbare_Kanten_TC_020513_DIN_
  6
Continuous
 62
     7
100
AcDbPolyline
 90
        2
 70
     0
 43
0.5
 10
494.181845155394
 20
162.6405786136
 10
499.181845155396
 20
162.6405786136
  0
LWPOLYLINE
  5
288
330
1F
100
AcDbEntity
  8
Sichtbare_Kanten_TC_020513_DIN_
  6
Continuous
 62
     7
100
AcDbPolyline
 90
        2
 70
     0
 43
0.5
 10
441.181845155399
 20
204.6405786136
 10
441.181845155398
 20
210.6405786136
  0
LWPOLYLINE
  5
289
330
1F
100
AcDbEntity
  8
Sichtbare_Kanten_TC_020513_DIN_
  6
Continuous
 62
     7
100
AcDbPolyline
 90
        2
 70
     0
 43
0.5
 10
441.181845155398
 20
242.1405786136
 10
441.181845155398
 20
210.6405786136
  0
LWPOLYLINE
  5
28A
330
1F
100
AcDbEntity
  8
Sichtbare_Kanten_TC_020513_DIN_
  6
Continuous
 62
     7
100
AcDbPolyline
 90
        2
 70
     0
 43
0.5
 10
441.181845155398
 20
242.1405786136
 10
441.181845155412
 20
248.1405786136
  0
LWPOLYLINE
  5
28B
330
1F
100
AcDbEntity
  8
Sichtbare_Kanten_TC_020513_DIN_
  6
Continuous
 62
     7
100
AcDbPolyline
 90
        2
 70
     0
 43
0.5
 10
441.181845155399
 20
204.6405786136
 10
430.681845155399
 20
204.6405786136
  0
LWPOLYLINE
  5
28C
330
1F
100
AcDbEntity
  8
Sichtbare_Kanten_TC_020513_DIN_
  6
Continuous
 62
     7
100
AcDbPolyline
 90
        2
 70
     0
 43
0.5
 10
441.181845155412
 20
248.1405786136
 10
430.681845155399
 20
248.1405786136
  0
LWPOLYLINE
  5
28D
330
1F
100
AcDbEntity
  8
Sichtbare_Kanten_TC_020513_DIN_
  6
Continuous
 62
     7
100
AcDbPolyline
 90
        2
 70
     0
 43
0.5
 10
439.181845155413
 20
251.1405786136
 10
439.181845155413
 20
248.1405786136
  0
LWPOLYLINE
  5
28E
330
1F
100
AcDbEntity
  8
Sichtbare_Kanten_TC_020513_DIN_
  6
Continuous
 62
     7
100
AcDbPolyline
 90
        2
 70
     0
 43
0.5
 10
439.181845155413
 20
251.1405786136
 10
441.181845155412
 20
251.1405786136
  0
LWPOLYLINE
  5
28F
330
1F
100
AcDbEntity
  8
Sichtbare_Kanten_TC_020513_DIN_
  6
Continuous
 62
     7
100
AcDbPolyline
 90
        2
 70
     0
 43
0.5
 10
441.181845155412
 20
248.1405786136
 10
441.181845155412
 20
251.1405786136
  0
LWPOLYLINE
  5
290
330
1F
100
AcDbEntity
  8
Sichtbare_Kanten_TC_020513_DIN_
  6
Continuous
 62
     7
100
AcDbPolyline
 90
        2
 70
     0
 43
0.5
 10
428.681845155398
 20
242.1405786136
 10
428.681845155398
 20
210.6405786136
  0
LWPOLYLINE
  5
291
330
1F
100
AcDbEntity
  8
Sichtbare_Kanten_TC_020513_DIN_
  6
Continuous
 62
     7
100
AcDbPolyline
 90
        2
 70
     0
 43
0.5
 10
428.681845155398
 20
242.1405786136
 10
428.681845155399
 20
246.1405786136
  0
LWPOLYLINE
  5
292
330
1F
100
AcDbEntity
  8
Sichtbare_Kanten_TC_020513_DIN_
  6
Continuous
 62
     7
100
AcDbPolyline
 90
        2
 70
     0
 43
0.5
 10
428.681845155399
 20
206.6405786136
 10
428.681845155398
 20
210.6405786136
  0
LWPOLYLINE
  5
293
330
1F
100
AcDbEntity
  8
Sichtbare_Kanten_TC_020513_DIN_
  6
Continuous
 62
     7
100
AcDbPolyline
 90
        2
 70
     0
 43
0.5
 10
435.155921101141
 20
187.1405786136
 10
437.181845155413
 20
187.1405786136
  0
LWPOLYLINE
  5
294
330
1F
100
AcDbEntity
  8
Sichtbare_Kanten_TC_020513_DIN_
  6
Continuous
 62
     7
100
AcDbPolyline
 90
        2
 70
     0
 43
0.5
 10
442.71391054152
 20
196.1405786136
 10
440.681845155413
 20
196.390084869759
  0
LWPOLYLINE
  5
295
330
1F
100
AcDbEntity
  8
Sichtbare_Kanten_TC_020513_DIN_
  6
Continuous
 62
     7
100
AcDbPolyline
 90
        2
 70
     0
 43
0.5
 10
433.707032361708
 20
188.252350045946
 10
429.159693303952
 20
205.223250448736
  0
LWPOLYLINE
  5
296
330
1F
100
AcDbEntity
  8
Sichtbare_Kanten_TC_020513_DIN_
  6
Continuous
 62
     7
100
AcDbPolyline
 90
        2
 70
     0
 43
0.5
 10
440.681845155413
 20
203.6405786136
 10
440.681845155413
 20
196.1405786136
  0
LWPOLYLINE
  5
297
330
1F
100
AcDbEntity
  8
Sichtbare_Kanten_TC_020513_DIN_
  6
Continuous
 62
     7
100
AcDbPolyline
 90
        2
 70
     0
 43
0.5
 10
440.681845155413
 20
203.6405786136
 10
440.681845155412
 20
204.6405786136
  0
LWPOLYLINE
  5
298
330
1F
100
AcDbEntity
  8
Sichtbare_Kanten_TC_020513_DIN_
  6
Continuous
 62
     7
100
AcDbPolyline
 90
        2
 70
     0
 43
0.5
 10
440.181845155396
 20
222.648921226826
 10
440.181845155396
 20
230.132236000374
  0
LWPOLYLINE
  5
299
330
1F
100
AcDbEntity
  8
Sichtbare_Kanten_TC_020513_DIN_
  6
Continuous
 62
     7
100
AcDbPolyline
 90
        2
 70
     0
 43
0.5
 10
494.181845155395
 20
168.6405786136
 10
497.181845155396
 20
168.6405786136
  0
LWPOLYLINE
  5
29A
330
1F
100
AcDbEntity
  8
Sichtbare_Kanten_TC_020513_DIN_
  6
Continuous
 62
     7
100
AcDbPolyline
 90
        2
 70
     0
 43
0.5
 10
494.181845155395
 20
168.6405786136
 10
458.681845155395
 20
168.6405786136
  0
LWPOLYLINE
  5
29B
330
1F
100
AcDbEntity
  8
Sichtbare_Kanten_TC_020513_DIN_
  6
Continuous
 62
     7
100
AcDbPolyline
 90
        2
 70
     0
 43
0.5
 10
455.681845155396
 20
168.6405786136
 10
458.681845155395
 20
168.6405786136
  0
LWPOLYLINE
  5
29C
330
1F
100
AcDbEntity
  8
Sichtbare_Kanten_TC_020513_DIN_
  6
Continuous
 62
     7
100
AcDbPolyline
 90
        2
 70
     0
 43
0.5
 10
454.681845632237
 20
169.640578494391
 10
454.681845632235
 20
167.6405786136
  0
LWPOLYLINE
  5
29D
330
1F
100
AcDbEntity
  8
Sichtbare_Kanten_TC_020513_DIN_
  6
Continuous
 62
     7
100
AcDbPolyline
 90
        2
 70
     0
 43
0.5
 10
498.181844678561
 20
167.6405786136
 10
498.181844678562
 20
169.640578494391
  0
LWPOLYLINE
  5
29E
330
1F
100
AcDbEntity
  8
Sichtbare_Kanten_TC_020513_DIN_
  6
Continuous
 62
     7
100
AcDbPolyline
 90
        2
 70
     0
 43
0.5
 10
454.681845155399
 20
169.6405786136
 10
454.681845155404
 20
186.1405786136
  0
LWPOLYLINE
  5
29F
330
1F
100
AcDbEntity
  8
Sichtbare_Kanten_TC_020513_DIN_
  6
Continuous
 62
     7
100
AcDbPolyline
 90
        2
 70
     0
 43
0.5
 10
454.681845155396
 20
166.1405786136
 10
454.681845155396
 20
167.6405786136
  0
LWPOLYLINE
  5
2A0
330
1F
100
AcDbEntity
  8
Sichtbare_Kanten_TC_020513_DIN_
  6
Continuous
 62
     7
100
AcDbPolyline
 90
        2
 70
     0
 43
0.5
 10
498.181845155396
 20
166.1405786136
 10
498.181845155396
 20
167.6405786136
  0
LWPOLYLINE
  5
2A1
330
1F
100
AcDbEntity
  8
Sichtbare_Kanten_TC_020513_DIN_
  6
Continuous
 62
     7
100
AcDbPolyline
 90
        2
 70
     0
 43
0.5
 10
498.181845155399
 20
169.6405786136
 10
498.181845155404
 20
186.1405786136
  0
LWPOLYLINE
  5
2A2
330
1F
100
AcDbEntity
  8
Sichtbare_Kanten_TC_020513_DIN_
  6
Continuous
 62
     7
100
AcDbPolyline
 90
        2
 70
     0
 43
0.5
 10
448.181845155404
 20
179.8905786136
 10
448.431845155404
 20
179.6405786136
  0
LWPOLYLINE
  5
2A3
330
1F
100
AcDbEntity
  8
Sichtbare_Kanten_TC_020513_DIN_
  6
Continuous
 62
     7
100
AcDbPolyline
 90
        2
 70
     0
 43
0.5
 10
448.181845155404
 20
184.3905786136
 10
448.431845155404
 20
184.6405786136
  0
LWPOLYLINE
  5
2A4
330
1F
100
AcDbEntity
  8
Sichtbare_Kanten_TC_020513_DIN_
  6
Continuous
 62
     7
100
AcDbPolyline
 90
        2
 70
     0
 43
0.5
 10
448.431845155404
 20
179.6405786136
 10
453.181845155404
 20
179.6405786136
  0
LWPOLYLINE
  5
2A5
330
1F
100
AcDbEntity
  8
Sichtbare_Kanten_TC_020513_DIN_
  6
Continuous
 62
     7
100
AcDbPolyline
 90
        2
 70
     0
 43
0.5
 10
448.431845155404
 20
184.6405786136
 10
453.181845155404
 20
184.6405786136
  0
LWPOLYLINE
  5
2A6
330
1F
100
AcDbEntity
  8
Sichtbare_Kanten_TC_020513_DIN_
  6
Continuous
 62
     7
100
AcDbPolyline
 90
        2
 70
     0
 43
0.5
 10
453.181845155404
 20
179.6405786136
 10
454.681845155404
 20
178.1405786136
  0
LWPOLYLINE
  5
2A7
330
1F
100
AcDbEntity
  8
Sichtbare_Kanten_TC_020513_DIN_
  6
Continuous
 62
     7
100
AcDbPolyline
 90
        2
 70
     0
 43
0.5
 10
453.181845155404
 20
184.6405786136
 10
454.681845155404
 20
186.1405786136
  0
LWPOLYLINE
  5
2A8
330
1F
100
AcDbEntity
  8
Sichtbare_Kanten_TC_020513_DIN_
  6
Continuous
 62
     7
100
AcDbPolyline
 90
        2
 70
     0
 43
0.5
 10
504.681845155404
 20
184.3905786136
 10
504.431845155404
 20
184.6405786136
  0
LWPOLYLINE
  5
2A9
330
1F
100
AcDbEntity
  8
Sichtbare_Kanten_TC_020513_DIN_
  6
Continuous
 62
     7
100
AcDbPolyline
 90
        2
 70
     0
 43
0.5
 10
504.681845155404
 20
179.8905786136
 10
504.431845155404
 20
179.6405786136
  0
LWPOLYLINE
  5
2AA
330
1F
100
AcDbEntity
  8
Sichtbare_Kanten_TC_020513_DIN_
  6
Continuous
 62
     7
100
AcDbPolyline
 90
        2
 70
     0
 43
0.5
 10
499.681845155404
 20
179.6405786136
 10
504.431845155404
 20
179.6405786136
  0
LWPOLYLINE
  5
2AB
330
1F
100
AcDbEntity
  8
Sichtbare_Kanten_TC_020513_DIN_
  6
Continuous
 62
     7
100
AcDbPolyline
 90
        2
 70
     0
 43
0.5
 10
499.681845155404
 20
184.6405786136
 10
504.431845155404
 20
184.6405786136
  0
LWPOLYLINE
  5
2AC
330
1F
100
AcDbEntity
  8
Sichtbare_Kanten_TC_020513_DIN_
  6
Continuous
 62
     7
100
AcDbPolyline
 90
        2
 70
     0
 43
0.5
 10
499.681845155404
 20
184.6405786136
 10
498.181845155404
 20
186.1405786136
  0
LWPOLYLINE
  5
2AD
330
1F
100
AcDbEntity
  8
Sichtbare_Kanten_TC_020513_DIN_
  6
Continuous
 62
     7
100
AcDbPolyline
 90
        2
 70
     0
 43
0.5
 10
499.681845155404
 20
179.6405786136
 10
498.181845155404
 20
178.1405786136
  0
LWPOLYLINE
  5
2AE
330
1F
100
AcDbEntity
  8
Sichtbare_Kanten_TC_020513_DIN_
  6
Continuous
 62
     7
100
AcDbPolyline
 90
        2
 70
     0
 43
0.5
 10
448.181845155404
 20
179.8905786136
 10
448.181845155404
 20
184.3905786136
  0
LWPOLYLINE
  5
2AF
330
1F
100
AcDbEntity
  8
Sichtbare_Kanten_TC_020513_DIN_
  6
Continuous
 62
     7
100
AcDbPolyline
 90
        2
 70
     0
 43
0.5
 10
448.431845155404
 20
179.6405786136
 10
448.431845155404
 20
184.6405786136
  0
LWPOLYLINE
  5
2B0
330
1F
100
AcDbEntity
  8
Sichtbare_Kanten_TC_020513_DIN_
  6
Continuous
 62
     7
100
AcDbPolyline
 90
        2
 70
     0
 43
0.5
 10
453.181845155404
 20
179.6405786136
 10
453.181845155404
 20
184.6405786136
  0
LWPOLYLINE
  5
2B1
330
1F
100
AcDbEntity
  8
Sichtbare_Kanten_TC_020513_DIN_
  6
Continuous
 62
     7
100
AcDbPolyline
 90
        2
 70
     0
 43
0.5
 10
504.681845155404
 20
179.8905786136
 10
504.681845155404
 20
184.3905786136
  0
LWPOLYLINE
  5
2B2
330
1F
100
AcDbEntity
  8
Sichtbare_Kanten_TC_020513_DIN_
  6
Continuous
 62
     7
100
AcDbPolyline
 90
        2
 70
     0
 43
0.5
 10
504.431845155404
 20
179.6405786136
 10
504.431845155404
 20
184.6405786136
  0
LWPOLYLINE
  5
2B3
330
1F
100
AcDbEntity
  8
Sichtbare_Kanten_TC_020513_DIN_
  6
Continuous
 62
     7
100
AcDbPolyline
 90
        2
 70
     0
 43
0.5
 10
499.681845155404
 20
179.6405786136
 10
499.681845155404
 20
184.6405786136
  0
LWPOLYLINE
  5
2B4
330
1F
100
AcDbEntity
  8
Sichtbare_Kanten_TC_020513_DIN_
  6
Continuous
 62
     7
100
AcDbPolyline
 90
        2
 70
     0
 43
0.5
 10
303.310521489006
 20
194.717522458131
 10
303.310521489006
 20
194.771955895557
  0
LWPOLYLINE
  5
2B5
330
1F
100
AcDbEntity
  8
Sichtbare_Kanten_TC_020513_DIN_
  6
Continuous
 62
     7
100
AcDbPolyline
 90
        2
 70
     0
 43
0.5
 10
291.310521489005
 20
194.771955895557
 10
291.310521489005
 20
194.717522458131
  0
LWPOLYLINE
  5
2B6
330
1F
100
AcDbEntity
  8
Sichtbare_Kanten_TC_020513_DIN_
  6
Continuous
 62
     7
100
AcDbPolyline
 90
        2
 70
     0
 43
0.5
 10
292.010521489006
 20
195.467795332313
 10
302.610521489006
 20
195.467795332313
  0
LWPOLYLINE
  5
2B7
330
1F
100
AcDbEntity
  8
Sichtbare_Kanten_TC_020513_DIN_
  6
Continuous
 62
     7
100
AcDbPolyline
 90
        2
 70
     0
 43
0.5
 10
292.010521489006
 20
195.413361894887
 10
302.610521489006
 20
195.413361894887
  0
LWPOLYLINE
  5
2B8
330
1F
100
AcDbEntity
  8
Sichtbare_Kanten_TC_020513_DIN_
  6
Continuous
 62
     7
100
AcDbPolyline
 90
        2
 70
     0
 43
0.5
 10
303.310521489006
 20
191.6405786136
 10
303.310521489006
 20
194.717522458131
  0
LWPOLYLINE
  5
2B9
330
1F
100
AcDbEntity
  8
Sichtbare_Kanten_TC_020513_DIN_
  6
Continuous
 62
     7
100
AcDbPolyline
 90
        2
 70
     0
 43
0.5
 10
291.310521489005
 20
194.717522458131
 10
291.310521489005
 20
191.6405786136
  0
LWPOLYLINE
  5
2BA
330
1F
100
AcDbEntity
  8
Sichtbare_Kanten_TC_020513_DIN_
  6
Continuous
 62
     7
100
AcDbPolyline
 90
        2
 70
     0
 43
0.5
 10
306.460521489005
 20
196.1405786136
 10
306.460521489005
 20
195.6405786136
  0
LWPOLYLINE
  5
2BB
330
1F
100
AcDbEntity
  8
Sichtbare_Kanten_TC_020513_DIN_
  6
Continuous
 62
     7
100
AcDbPolyline
 90
        2
 70
     0
 43
0.5
 10
288.160521489005
 20
195.6405786136
 10
288.160521489005
 20
196.1405786136
  0
LWPOLYLINE
  5
2BC
330
1F
100
AcDbEntity
  8
Sichtbare_Kanten_TC_020513_DIN_
  6
Continuous
 62
     7
100
AcDbPolyline
 90
        2
 70
     0
 43
0.5
 10
284.060521489006
 20
193.1405786136
 10
288.160521489005
 20
193.1405786136
  0
LWPOLYLINE
  5
2BD
330
1F
100
AcDbEntity
  8
Sichtbare_Kanten_TC_020513_DIN_
  6
Continuous
 62
     7
100
AcDbPolyline
 90
        2
 70
     0
 43
0.5
 10
306.460521489005
 20
193.1405786136
 10
310.560521489006
 20
193.1405786136
  0
LWPOLYLINE
  5
2BE
330
1F
100
AcDbEntity
  8
Sichtbare_Kanten_TC_020513_DIN_
  6
Continuous
 62
     7
100
AcDbPolyline
 90
        2
 70
     0
 43
0.5
 10
310.560521489006
 20
195.6405786136
 10
310.560521489006
 20
191.6405786136
  0
LWPOLYLINE
  5
2BF
330
1F
100
AcDbEntity
  8
Sichtbare_Kanten_TC_020513_DIN_
  6
Continuous
 62
     7
100
AcDbPolyline
 90
        2
 70
     0
 43
0.5
 10
306.460521489005
 20
195.6405786136
 10
310.560521489006
 20
195.6405786136
  0
LWPOLYLINE
  5
2C0
330
1F
100
AcDbEntity
  8
Sichtbare_Kanten_TC_020513_DIN_
  6
Continuous
 62
     7
100
AcDbPolyline
 90
        2
 70
     0
 43
0.5
 10
288.160521489005
 20
193.1405786136
 10
288.160521489005
 20
193.734097823721
  0
LWPOLYLINE
  5
2C1
330
1F
100
AcDbEntity
  8
Sichtbare_Kanten_TC_020513_DIN_
  6
Continuous
 62
     7
100
AcDbPolyline
 90
        2
 70
     0
 43
0.5
 10
288.160521489005
 20
195.6405786136
 10
288.160521489005
 20
193.734097823721
  0
LWPOLYLINE
  5
2C2
330
1F
100
AcDbEntity
  8
Sichtbare_Kanten_TC_020513_DIN_
  6
Continuous
 62
     7
100
AcDbPolyline
 90
        2
 70
     0
 43
0.5
 10
306.460521489005
 20
193.734097823721
 10
306.460521489005
 20
195.6405786136
  0
LWPOLYLINE
  5
2C3
330
1F
100
AcDbEntity
  8
Sichtbare_Kanten_TC_020513_DIN_
  6
Continuous
 62
     7
100
AcDbPolyline
 90
        2
 70
     0
 43
0.5
 10
306.460521489005
 20
193.734097823721
 10
306.460521489005
 20
193.1405786136
  0
LWPOLYLINE
  5
2C4
330
1F
100
AcDbEntity
  8
Sichtbare_Kanten_TC_020513_DIN_
  6
Continuous
 62
     7
100
AcDbPolyline
 90
        2
 70
     0
 43
0.5
 10
284.060521489006
 20
191.6405786136
 10
284.060521489006
 20
195.6405786136
  0
LWPOLYLINE
  5
2C5
330
1F
100
AcDbEntity
  8
Sichtbare_Kanten_TC_020513_DIN_
  6
Continuous
 62
     7
100
AcDbPolyline
 90
        2
 70
     0
 43
0.5
 10
284.060521489006
 20
195.6405786136
 10
288.160521489005
 20
195.6405786136
  0
LWPOLYLINE
  5
2C6
330
1F
100
AcDbEntity
  8
Sichtbare_Kanten_TC_020513_DIN_
  6
Continuous
 62
     7
100
AcDbPolyline
 90
        2
 70
     0
 43
0.5
 10
357.310521489006
 20
186.1405786136
 10
357.310521489006
 20
191.6405786136
  0
LWPOLYLINE
  5
2C7
330
1F
100
AcDbEntity
  8
Sichtbare_Kanten_TC_020513_DIN_
  6
Continuous
 62
     7
100
AcDbPolyline
 90
        2
 70
     0
 43
0.5
 10
351.310521489006
 20
186.1405786136
 10
357.310521489006
 20
186.1405786136
  0
LWPOLYLINE
  5
2C8
330
1F
100
AcDbEntity
  8
Sichtbare_Kanten_TC_020513_DIN_
  6
Continuous
 62
     7
100
AcDbPolyline
 90
        2
 70
     0
 43
0.5
 10
351.310521489006
 20
186.1405786136
 10
243.310521489005
 20
186.1405786136
  0
LWPOLYLINE
  5
2C9
330
1F
100
AcDbEntity
  8
Sichtbare_Kanten_TC_020513_DIN_
  6
Continuous
 62
     7
100
AcDbPolyline
 90
        2
 70
     0
 43
0.5
 10
237.310521489005
 20
186.1405786136
 10
243.310521489005
 20
186.1405786136
  0
LWPOLYLINE
  5
2CA
330
1F
100
AcDbEntity
  8
Sichtbare_Kanten_TC_020513_DIN_
  6
Continuous
 62
     7
100
AcDbPolyline
 90
        2
 70
     0
 43
0.5
 10
237.310521489005
 20
186.1405786136
 10
237.310521489006
 20
191.6405786136
  0
LWPOLYLINE
  5
2CB
330
1F
100
AcDbEntity
  8
Sichtbare_Kanten_TC_020513_DIN_
  6
Continuous
 62
     7
100
AcDbPolyline
 90
        2
 70
     0
 43
0.5
 10
351.310521489006
 20
191.6405786136
 10
357.310521489006
 20
191.6405786136
  0
LWPOLYLINE
  5
2CC
330
1F
100
AcDbEntity
  8
Sichtbare_Kanten_TC_020513_DIN_
  6
Continuous
 62
     7
100
AcDbPolyline
 90
        2
 70
     0
 43
0.5
 10
351.310521489006
 20
191.6405786136
 10
243.310521489005
 20
191.6405786136
  0
LWPOLYLINE
  5
2CD
330
1F
100
AcDbEntity
  8
Sichtbare_Kanten_TC_020513_DIN_
  6
Continuous
 62
     7
100
AcDbPolyline
 90
        2
 70
     0
 43
0.5
 10
237.310521489006
 20
191.6405786136
 10
243.310521489005
 20
191.6405786136
  0
LWPOLYLINE
  5
2CE
330
1F
100
AcDbEntity
  8
Sichtbare_Kanten_TC_020513_DIN_
  6
Continuous
 62
     7
100
AcDbPolyline
 90
        2
 70
     0
 43
0.5
 10
228.060521489006
 20
168.6405786136
 10
231.060521489006
 20
168.6405786136
  0
LWPOLYLINE
  5
2CF
330
1F
100
AcDbEntity
  8
Sichtbare_Kanten_TC_020513_DIN_
  6
Continuous
 62
     7
100
AcDbPolyline
 90
        2
 70
     0
 43
0.5
 10
238.661542003439
 20
168.6405786136
 10
231.060521489006
 20
168.6405786136
  0
LWPOLYLINE
  5
2D0
330
1F
100
AcDbEntity
  8
Sichtbare_Kanten_TC_020513_DIN_
  6
Continuous
 62
     7
100
AcDbPolyline
 90
        2
 70
     0
 43
0.5
 10
363.560521489006
 20
168.6405786136
 10
366.560521489005
 20
168.6405786136
  0
LWPOLYLINE
  5
2D1
330
1F
100
AcDbEntity
  8
Sichtbare_Kanten_TC_020513_DIN_
  6
Continuous
 62
     7
100
AcDbPolyline
 90
        2
 70
     0
 43
0.5
 10
363.560521489006
 20
168.6405786136
 10
355.959500974572
 20
168.6405786136
  0
LWPOLYLINE
  5
2D2
330
1F
100
AcDbEntity
  8
Sichtbare_Kanten_TC_020513_DIN_
  6
Continuous
 62
     7
100
AcDbPolyline
 90
        2
 70
     0
 43
0.5
 10
237.560521489006
 20
169.6405786136
 10
237.560521489006
 20
186.1405786136
  0
LWPOLYLINE
  5
2D3
330
1F
100
AcDbEntity
  8
Sichtbare_Kanten_TC_020513_DIN_
  6
Continuous
 62
     7
100
AcDbPolyline
 90
        2
 70
     0
 43
0.5
 10
357.060521489006
 20
169.6405786136
 10
357.060521489006
 20
186.1405786136
  0
LWPOLYLINE
  5
2D4
330
1F
100
AcDbEntity
  8
Sichtbare_Kanten_TC_020513_DIN_
  6
Continuous
 62
     7
100
AcDbPolyline
 90
        2
 70
     0
 43
0.5
 10
367.560521489006
 20
166.1405786136
 10
367.560521489006
 20
167.6405786136
  0
LWPOLYLINE
  5
2D5
330
1F
100
AcDbEntity
  8
Sichtbare_Kanten_TC_020513_DIN_
  6
Continuous
 62
     7
100
AcDbPolyline
 90
        2
 70
     0
 43
0.5
 10
227.060521489005
 20
166.1405786136
 10
227.060521489006
 20
167.6405786136
  0
LWPOLYLINE
  5
2D6
330
1F
100
AcDbEntity
  8
Sichtbare_Kanten_TC_020513_DIN_
  6
Continuous
 62
     7
100
AcDbPolyline
 90
        2
 70
     0
 43
0.5
 10
363.560521489006
 20
166.1405786136
 10
368.560521489005
 20
166.1405786136
  0
LWPOLYLINE
  5
2D7
330
1F
100
AcDbEntity
  8
Sichtbare_Kanten_TC_020513_DIN_
  6
Continuous
 62
     7
100
AcDbPolyline
 90
        2
 70
     0
 43
0.5
 10
363.560521489006
 20
166.1405786136
 10
231.060521489006
 20
166.1405786136
  0
LWPOLYLINE
  5
2D8
330
1F
100
AcDbEntity
  8
Sichtbare_Kanten_TC_020513_DIN_
  6
Continuous
 62
     7
100
AcDbPolyline
 90
        2
 70
     0
 43
0.5
 10
226.060521489006
 20
166.1405786136
 10
231.060521489006
 20
166.1405786136
  0
LWPOLYLINE
  5
2D9
330
1F
100
AcDbEntity
  8
Sichtbare_Kanten_TC_020513_DIN_
  6
Continuous
 62
     7
100
AcDbPolyline
 90
        2
 70
     0
 43
0.5
 10
368.560521489005
 20
162.6405786136
 10
368.560521489005
 20
166.1405786136
  0
LWPOLYLINE
  5
2DA
330
1F
100
AcDbEntity
  8
Sichtbare_Kanten_TC_020513_DIN_
  6
Continuous
 62
     7
100
AcDbPolyline
 90
        2
 70
     0
 43
0.5
 10
226.060521489006
 20
162.6405786136
 10
226.060521489006
 20
166.1405786136
  0
LWPOLYLINE
  5
2DB
330
1F
100
AcDbEntity
  8
Sichtbare_Kanten_TC_020513_DIN_
  6
Continuous
 62
     7
100
AcDbPolyline
 90
        2
 70
     0
 43
0.5
 10
226.060521489006
 20
162.6405786136
 10
231.060521489006
 20
162.6405786136
  0
LWPOLYLINE
  5
2DC
330
1F
100
AcDbEntity
  8
Sichtbare_Kanten_TC_020513_DIN_
  6
Continuous
 62
     7
100
AcDbPolyline
 90
        2
 70
     0
 43
0.5
 10
363.560521489006
 20
162.6405786136
 10
231.060521489006
 20
162.6405786136
  0
LWPOLYLINE
  5
2DD
330
1F
100
AcDbEntity
  8
Sichtbare_Kanten_TC_020513_DIN_
  6
Continuous
 62
     7
100
AcDbPolyline
 90
        2
 70
     0
 43
0.5
 10
363.560521489006
 20
162.6405786136
 10
368.560521489005
 20
162.6405786136
  0
LWPOLYLINE
  5
2DE
330
1F
100
AcDbEntity
  8
Sichtbare_Kanten_TC_020513_DIN_
  6
Continuous
 62
     7
100
AcDbPolyline
 90
        2
 70
     0
 43
0.5
 10
288.160521489005
 20
193.1405786136
 10
288.310521489006
 20
193.1405786136
  0
LWPOLYLINE
  5
2DF
330
1F
100
AcDbEntity
  8
Sichtbare_Kanten_TC_020513_DIN_
  6
Continuous
 62
     7
100
AcDbPolyline
 90
        2
 70
     0
 43
0.5
 10
306.310521489005
 20
193.1405786136
 10
306.460521489005
 20
193.1405786136
  0
LWPOLYLINE
  5
2E0
330
1F
100
AcDbEntity
  8
Sichtbare_Kanten_TC_020513_DIN_
  6
Continuous
 62
     7
100
AcDbPolyline
 90
        2
 70
     0
 43
0.5
 10
284.310521489006
 20
191.6405786136
 10
284.310521489006
 20
193.1405786136
  0
LWPOLYLINE
  5
2E1
330
1F
100
AcDbEntity
  8
Sichtbare_Kanten_TC_020513_DIN_
  6
Continuous
 62
     7
100
AcDbPolyline
 90
        2
 70
     0
 43
0.5
 10
310.310521489006
 20
193.1405786136
 10
310.310521489006
 20
191.6405786136
  0
LWPOLYLINE
  5
2E2
330
1F
100
AcDbEntity
  8
Sichtbare_Kanten_TC_020513_DIN_
  6
Continuous
 62
     7
100
AcDbPolyline
 90
        2
 70
     0
 43
0.5
 10
306.810521489006
 20
251.1405786136
 10
306.810521489006
 20
248.1405786136
  0
LWPOLYLINE
  5
2E3
330
1F
100
AcDbEntity
  8
Sichtbare_Kanten_TC_020513_DIN_
  6
Continuous
 62
     7
100
AcDbPolyline
 90
        2
 70
     0
 43
0.5
 10
287.810521489006
 20
251.1405786136
 10
306.810521489006
 20
251.1405786136
  0
LWPOLYLINE
  5
2E4
330
1F
100
AcDbEntity
  8
Sichtbare_Kanten_TC_020513_DIN_
  6
Continuous
 62
     7
100
AcDbPolyline
 90
        2
 70
     0
 43
0.5
 10
287.810521489006
 20
248.1405786136
 10
287.810521489006
 20
251.1405786136
  0
LWPOLYLINE
  5
2E5
330
1F
100
AcDbEntity
  8
Sichtbare_Kanten_TC_020513_DIN_
  6
Continuous
 62
     7
100
AcDbPolyline
 90
        2
 70
     0
 43
0.5
 10
237.560521489005
 20
242.1405786136
 10
237.560521489006
 20
210.6405786136
  0
LWPOLYLINE
  5
2E6
330
1F
100
AcDbEntity
  8
Sichtbare_Kanten_TC_020513_DIN_
  6
Continuous
 62
     7
100
AcDbPolyline
 90
        2
 70
     0
 43
0.5
 10
243.560521489006
 20
245.6405786136
 10
351.060521489006
 20
245.6405786136
  0
LWPOLYLINE
  5
2E7
330
1F
100
AcDbEntity
  8
Sichtbare_Kanten_TC_020513_DIN_
  6
Continuous
 62
     7
100
AcDbPolyline
 90
        2
 70
     0
 43
0.5
 10
354.560521489006
 20
242.1405786136
 10
354.560521489006
 20
210.6405786136
  0
LWPOLYLINE
  5
2E8
330
1F
100
AcDbEntity
  8
Sichtbare_Kanten_TC_020513_DIN_
  6
Continuous
 62
     7
100
AcDbPolyline
 90
        2
 70
     0
 43
0.5
 10
243.560521489006
 20
204.6405786136
 10
351.060521489006
 20
204.6405786136
  0
LWPOLYLINE
  5
2E9
330
1F
100
AcDbEntity
  8
Sichtbare_Kanten_TC_020513_DIN_
  6
Continuous
 62
     7
100
AcDbPolyline
 90
        2
 70
     0
 43
0.5
 10
240.060521489005
 20
210.6405786136
 10
240.060521489006
 20
242.1405786136
  0
LWPOLYLINE
  5
2EA
330
1F
100
AcDbEntity
  8
Sichtbare_Kanten_TC_020513_DIN_
  6
Continuous
 62
     7
100
AcDbPolyline
 90
        2
 70
     0
 43
0.5
 10
351.060521489006
 20
207.1405786136
 10
243.560521489006
 20
207.1405786136
  0
LWPOLYLINE
  5
2EB
330
1F
100
AcDbEntity
  8
Sichtbare_Kanten_TC_020513_DIN_
  6
Continuous
 62
     7
100
AcDbPolyline
 90
        2
 70
     0
 43
0.5
 10
351.060521489006
 20
248.1405786136
 10
306.810521489006
 20
248.1405786136
  0
LWPOLYLINE
  5
2EC
330
1F
100
AcDbEntity
  8
Sichtbare_Kanten_TC_020513_DIN_
  6
Continuous
 62
     7
100
AcDbPolyline
 90
        2
 70
     0
 43
0.5
 10
287.810521489006
 20
248.1405786136
 10
243.560521489006
 20
248.1405786136
  0
LWPOLYLINE
  5
2ED
330
1F
100
AcDbEntity
  8
Sichtbare_Kanten_TC_020513_DIN_
  6
Continuous
 62
     7
100
AcDbPolyline
 90
        2
 70
     0
 43
0.5
 10
357.060521489006
 20
210.6405786136
 10
357.060521489006
 20
242.1405786136
  0
LWPOLYLINE
  5
2EE
330
1F
100
AcDbEntity
  8
Sichtbare_Kanten_TC_020513_DIN_
  6
Continuous
 62
     7
100
AcDbPolyline
 90
        2
 70
     0
 43
0.5
 10
305.310521489006
 20
196.390084869759
 10
289.310521489006
 20
196.390084869759
  0
LWPOLYLINE
  5
2EF
330
1F
100
AcDbEntity
  8
Sichtbare_Kanten_TC_020513_DIN_
  6
Continuous
 62
     7
100
AcDbPolyline
 90
        2
 70
     0
 43
0.5
 10
306.310521489005
 20
195.3825750443
 10
306.310521489006
 20
203.6405786136
  0
LWPOLYLINE
  5
2F0
330
1F
100
AcDbEntity
  8
Sichtbare_Kanten_TC_020513_DIN_
  6
Continuous
 62
     7
100
AcDbPolyline
 90
        2
 70
     0
 43
0.5
 10
288.310521489006
 20
203.6405786136
 10
288.310521489006
 20
195.3825750443
  0
LWPOLYLINE
  5
2F1
330
1F
100
AcDbEntity
  8
Sichtbare_Kanten_TC_020513_DIN_
  6
Continuous
 62
     7
100
AcDbPolyline
 90
        2
 70
     0
 43
0.5
 10
306.310521489005
 20
191.6405786136
 10
306.310521489005
 20
195.001942905501
  0
LWPOLYLINE
  5
2F2
330
1F
100
AcDbEntity
  8
Sichtbare_Kanten_TC_020513_DIN_
  6
Continuous
 62
     7
100
AcDbPolyline
 90
        2
 70
     0
 43
0.5
 10
306.310521489005
 20
195.001942905501
 10
306.310521489005
 20
195.3825750443
  0
LWPOLYLINE
  5
2F3
330
1F
100
AcDbEntity
  8
Sichtbare_Kanten_TC_020513_DIN_
  6
Continuous
 62
     7
100
AcDbPolyline
 90
        2
 70
     0
 43
0.5
 10
288.310521489006
 20
195.3825750443
 10
288.310521489006
 20
195.001942905501
  0
LWPOLYLINE
  5
2F4
330
1F
100
AcDbEntity
  8
Sichtbare_Kanten_TC_020513_DIN_
  6
Continuous
 62
     7
100
AcDbPolyline
 90
        2
 70
     0
 43
0.5
 10
288.310521489006
 20
195.001942905501
 10
288.310521489006
 20
191.6405786136
  0
LWPOLYLINE
  5
2F5
330
1F
100
AcDbEntity
  8
Sichtbare_Kanten_TC_020513_DIN_
  6
Continuous
 62
     7
100
AcDbPolyline
 90
        2
 70
     0
 43
0.5
 10
357.060521489006
 20
221.8905786136
 10
363.310521489006
 20
221.8905786136
  0
LWPOLYLINE
  5
2F6
330
1F
100
AcDbEntity
  8
Sichtbare_Kanten_TC_020513_DIN_
  6
Continuous
 62
     7
100
AcDbPolyline
 90
        2
 70
     0
 43
0.5
 10
357.060521489006
 20
230.8905786136
 10
363.310521489006
 20
230.8905786136
  0
LWPOLYLINE
  5
2F7
330
1F
100
AcDbEntity
  8
Sichtbare_Kanten_TC_020513_DIN_
  6
Continuous
 62
     7
100
AcDbPolyline
 90
        2
 70
     0
 43
0.5
 10
363.310521489006
 20
222.648921226826
 10
363.310521489006
 20
230.132236000374
  0
LWPOLYLINE
  5
2F8
330
1F
100
AcDbEntity
  8
Sichtbare_Kanten_TC_020513_DIN_
  6
Continuous
 62
     7
100
AcDbPolyline
 90
        2
 70
     0
 43
0.5
 10
357.060521489006
 20
222.648921226826
 10
363.310521489006
 20
222.648921226826
  0
LWPOLYLINE
  5
2F9
330
1F
100
AcDbEntity
  8
Sichtbare_Kanten_TC_020513_DIN_
  6
Continuous
 62
     7
100
AcDbPolyline
 90
        2
 70
     0
 43
0.5
 10
363.310521489006
 20
222.648921226826
 10
363.310521489006
 20
221.8905786136
  0
LWPOLYLINE
  5
2FA
330
1F
100
AcDbEntity
  8
Sichtbare_Kanten_TC_020513_DIN_
  6
Continuous
 62
     7
100
AcDbPolyline
 90
        2
 70
     0
 43
0.5
 10
363.310521489006
 20
230.8905786136
 10
363.310521489006
 20
230.132236000374
  0
LWPOLYLINE
  5
2FB
330
1F
100
AcDbEntity
  8
Sichtbare_Kanten_TC_020513_DIN_
  6
Continuous
 62
     7
100
AcDbPolyline
 90
        2
 70
     0
 43
0.5
 10
357.060521489006
 20
230.132236000374
 10
363.310521489006
 20
230.132236000374
  0
LWPOLYLINE
  5
2FC
330
1F
100
AcDbEntity
  8
Sichtbare_Kanten_TC_020513_DIN_
  6
Continuous
 62
     7
100
AcDbPolyline
 90
        2
 70
     0
 43
0.5
 10
231.310521489006
 20
221.8905786136
 10
237.560521489006
 20
221.8905786136
  0
LWPOLYLINE
  5
2FD
330
1F
100
AcDbEntity
  8
Sichtbare_Kanten_TC_020513_DIN_
  6
Continuous
 62
     7
100
AcDbPolyline
 90
        2
 70
     0
 43
0.5
 10
231.310521489006
 20
230.8905786136
 10
237.560521489006
 20
230.8905786136
  0
LWPOLYLINE
  5
2FE
330
1F
100
AcDbEntity
  8
Sichtbare_Kanten_TC_020513_DIN_
  6
Continuous
 62
     7
100
AcDbPolyline
 90
        2
 70
     0
 43
0.5
 10
231.310521489006
 20
222.648921226826
 10
231.310521489006
 20
230.132236000374
  0
LWPOLYLINE
  5
2FF
330
1F
100
AcDbEntity
  8
Sichtbare_Kanten_TC_020513_DIN_
  6
Continuous
 62
     7
100
AcDbPolyline
 90
        2
 70
     0
 43
0.5
 10
237.560521489006
 20
230.132236000374
 10
231.310521489006
 20
230.132236000374
  0
LWPOLYLINE
  5
300
330
1F
100
AcDbEntity
  8
Sichtbare_Kanten_TC_020513_DIN_
  6
Continuous
 62
     7
100
AcDbPolyline
 90
        2
 70
     0
 43
0.5
 10
231.310521489006
 20
222.648921226826
 10
231.310521489006
 20
221.8905786136
  0
LWPOLYLINE
  5
301
330
1F
100
AcDbEntity
  8
Sichtbare_Kanten_TC_020513_DIN_
  6
Continuous
 62
     7
100
AcDbPolyline
 90
        2
 70
     0
 43
0.5
 10
231.310521489006
 20
230.8905786136
 10
231.310521489006
 20
230.132236000374
  0
LWPOLYLINE
  5
302
330
1F
100
AcDbEntity
  8
Sichtbare_Kanten_TC_020513_DIN_
  6
Continuous
 62
     7
100
AcDbPolyline
 90
        2
 70
     0
 43
0.5
 10
237.560521489006
 20
222.648921226826
 10
231.310521489006
 20
222.648921226826
  0
LWPOLYLINE
  5
303
330
1F
100
AcDbEntity
  8
Sichtbare_Kanten_TC_020513_DIN_
  6
Continuous
 62
     7
100
AcDbPolyline
 90
        2
 70
     0
 43
0.5
 10
282.810521489006
 20
196.1405786136
 10
288.160521489005
 20
196.1405786136
  0
LWPOLYLINE
  5
304
330
1F
100
AcDbEntity
  8
Sichtbare_Kanten_TC_020513_DIN_
  6
Continuous
 62
     7
100
AcDbPolyline
 90
        2
 70
     0
 43
0.5
 10
306.460521489005
 20
196.1405786136
 10
311.810521489006
 20
196.1405786136
  0
LWPOLYLINE
  5
305
330
1F
100
AcDbEntity
  8
Sichtbare_Kanten_TC_020513_DIN_
  6
Continuous
 62
     7
100
AcDbPolyline
 90
        2
 70
     0
 43
0.5
 10
282.310521489006
 20
195.6405786136
 10
282.310521489006
 20
191.6405786136
  0
LWPOLYLINE
  5
306
330
1F
100
AcDbEntity
  8
Sichtbare_Kanten_TC_020513_DIN_
  6
Continuous
 62
     7
100
AcDbPolyline
 90
        2
 70
     0
 43
0.5
 10
312.310521489006
 20
191.6405786136
 10
312.310521489006
 20
195.6405786136
  0
LWPOLYLINE
  5
307
330
1F
100
AcDbEntity
  8
Sichtbare_Kanten_TC_020513_DIN_
  6
Continuous
 62
     7
100
AcDbPolyline
 90
        2
 70
     0
 43
0.5
 10
298.435521489006
 20
171.179761105698
 10
298.435521489006
 20
176.944158427286
  0
LWPOLYLINE
  5
308
330
1F
100
AcDbEntity
  8
Sichtbare_Kanten_TC_020513_DIN_
  6
Continuous
 62
     7
100
AcDbPolyline
 90
        2
 70
     0
 43
0.5
 10
299.185521489006
 20
178.101396121501
 10
299.185521489006
 20
171.179761105698
  0
LWPOLYLINE
  5
309
330
1F
100
AcDbEntity
  8
Sichtbare_Kanten_TC_020513_DIN_
  6
Continuous
 62
     7
100
AcDbPolyline
 90
        2
 70
     0
 43
0.5
 10
297.310521489006
 20
176.66933412624
 10
298.506792629515
 20
178.321336522321
  0
LWPOLYLINE
  5
30A
330
1F
100
AcDbEntity
  8
Sichtbare_Kanten_TC_020513_DIN_
  6
Continuous
 62
     7
100
AcDbPolyline
 90
        2
 70
     0
 43
0.5
 10
296.114250348496
 20
178.321336522321
 10
297.310521489006
 20
176.66933412624
  0
LWPOLYLINE
  5
30B
330
1F
100
AcDbEntity
  8
Sichtbare_Kanten_TC_020513_DIN_
  6
Continuous
 62
     7
100
AcDbPolyline
 90
        2
 70
     0
 43
0.5
 10
295.435521489005
 20
172.953799567237
 10
295.435521489006
 20
178.101396121501
  0
LWPOLYLINE
  5
30C
330
1F
100
AcDbEntity
  8
Sichtbare_Kanten_TC_020513_DIN_
  6
Continuous
 62
     7
100
AcDbPolyline
 90
        2
 70
     0
 43
0.5
 10
296.185521489006
 20
176.944158427286
 10
296.185521489006
 20
172.953799567237
  0
LWPOLYLINE
  5
30D
330
1F
100
AcDbEntity
  8
Sichtbare_Kanten_TC_020513_DIN_
  6
Continuous
 62
     7
100
AcDbPolyline
 90
        2
 70
     0
 43
0.5
 10
297.310521489006
 20
175.3905786136
 10
296.185521489006
 20
176.944158427286
  0
LWPOLYLINE
  5
30E
330
1F
100
AcDbEntity
  8
Sichtbare_Kanten_TC_020513_DIN_
  6
Continuous
 62
     7
100
AcDbPolyline
 90
        2
 70
     0
 43
0.5
 10
298.435521489006
 20
176.944158427286
 10
297.310521489006
 20
175.3905786136
  0
LWPOLYLINE
  5
30F
330
1F
100
AcDbEntity
  8
Sichtbare_Kanten_TC_020513_DIN_
  6
Continuous
 62
     7
100
AcDbPolyline
 90
        2
 70
     0
 43
0.5
 10
297.123125568947
 20
169.989556895545
 10
294.048125568947
 20
171.763595357084
  0
LWPOLYLINE
  5
310
330
1F
100
AcDbEntity
  8
Sichtbare_Kanten_TC_020513_DIN_
  6
Continuous
 62
     7
100
AcDbPolyline
 90
        2
 70
     0
 43
0.5
 10
294.610521489006
 20
172.305001423577
 10
297.497917409064
 20
170.639196085082
  0
LWPOLYLINE
  5
311
330
1F
100
AcDbEntity
  8
Sichtbare_Kanten_TC_020513_DIN_
  6
Continuous
 62
     7
100
AcDbPolyline
 90
        2
 70
     0
 43
0.5
 10
294.610521489006
 20
177.192742275348
 10
294.610521489006
 20
172.305001423577
  0
LWPOLYLINE
  5
312
330
1F
100
AcDbEntity
  8
Sichtbare_Kanten_TC_020513_DIN_
  6
Continuous
 62
     7
100
AcDbPolyline
 90
        2
 70
     0
 43
0.5
 10
293.860521489006
 20
172.088414951852
 10
293.860521489006
 20
177.192742275348
  0
LWPOLYLINE
  5
313
330
1F
100
AcDbEntity
  8
Sichtbare_Kanten_TC_020513_DIN_
  6
Continuous
 62
     7
100
AcDbPolyline
 90
        2
 70
     0
 43
0.5
 10
297.310521489006
 20
179.832645988029
 10
288.310938039996
 20
174.6405786136
  0
LWPOLYLINE
  5
314
330
1F
100
AcDbEntity
  8
Sichtbare_Kanten_TC_020513_DIN_
  6
Continuous
 62
     7
100
AcDbPolyline
 90
        2
 70
     0
 43
0.5
 10
306.310104938015
 20
174.6405786136
 10
297.310521489006
 20
179.832645988029
  0
LWPOLYLINE
  5
315
330
1F
100
AcDbEntity
  8
Sichtbare_Kanten_TC_020513_DIN_
  6
Continuous
 62
     7
100
AcDbPolyline
 90
        2
 70
     0
 43
0.5
 10
297.310521489006
 20
169.448511239171
 10
306.310104938015
 20
174.6405786136
  0
LWPOLYLINE
  5
316
330
1F
100
AcDbEntity
  8
Sichtbare_Kanten_TC_020513_DIN_
  6
Continuous
 62
     7
100
AcDbPolyline
 90
        2
 70
     0
 43
0.5
 10
288.310938039996
 20
174.6405786136
 10
297.310521489006
 20
169.448511239171
  0
LWPOLYLINE
  5
317
330
1F
100
AcDbEntity
  8
Sichtbare_Kanten_TC_020513_DIN_
  6
Continuous
 62
     7
100
AcDbPolyline
 90
        2
 70
     0
 43
0.5
 10
292.360521489005
 20
172.953799567237
 10
292.360521489005
 20
176.327357659963
  0
LWPOLYLINE
  5
318
330
1F
100
AcDbEntity
  8
Sichtbare_Kanten_TC_020513_DIN_
  6
Continuous
 62
     7
100
AcDbPolyline
 90
        2
 70
     0
 43
0.5
 10
293.110521489005
 20
176.327357659963
 10
293.110521489006
 20
172.953799567237
  0
LWPOLYLINE
  5
319
330
1F
100
AcDbEntity
  8
Sichtbare_Kanten_TC_020513_DIN_
  6
Continuous
 62
     7
100
AcDbPolyline
 90
        2
 70
     0
 43
0.5
 10
302.747917409064
 20
173.018403049392
 10
300.497917409064
 20
171.720326126315
  0
LWPOLYLINE
  5
31A
330
1F
100
AcDbEntity
  8
Sichtbare_Kanten_TC_020513_DIN_
  6
Continuous
 62
     7
100
AcDbPolyline
 90
        2
 70
     0
 43
0.5
 10
300.685521489005
 20
172.6944245005
 10
302.373125568947
 20
173.668042238928
  0
LWPOLYLINE
  5
31B
330
1F
100
AcDbEntity
  8
Sichtbare_Kanten_TC_020513_DIN_
  6
Continuous
 62
     7
100
AcDbPolyline
 90
        2
 70
     0
 43
0.5
 10
300.685521489005
 20
174.2655786136
 10
300.685521489005
 20
172.6944245005
  0
LWPOLYLINE
  5
31C
330
1F
100
AcDbEntity
  8
Sichtbare_Kanten_TC_020513_DIN_
  6
Continuous
 62
     7
100
AcDbPolyline
 90
        2
 70
     0
 43
0.5
 10
302.560521489006
 20
174.2655786136
 10
300.685521489005
 20
174.2655786136
  0
LWPOLYLINE
  5
31D
330
1F
100
AcDbEntity
  8
Sichtbare_Kanten_TC_020513_DIN_
  6
Continuous
 62
     7
100
AcDbPolyline
 90
        2
 70
     0
 43
0.5
 10
300.685521489005
 20
175.0155786136
 10
302.560521489006
 20
175.0155786136
  0
LWPOLYLINE
  5
31E
330
1F
100
AcDbEntity
  8
Sichtbare_Kanten_TC_020513_DIN_
  6
Continuous
 62
     7
100
AcDbPolyline
 90
        2
 70
     0
 43
0.5
 10
300.685521489005
 20
176.586732726699
 10
300.685521489005
 20
175.0155786136
  0
LWPOLYLINE
  5
31F
330
1F
100
AcDbEntity
  8
Sichtbare_Kanten_TC_020513_DIN_
  6
Continuous
 62
     7
100
AcDbPolyline
 90
        2
 70
     0
 43
0.5
 10
302.373125568947
 20
175.613114988272
 10
300.685521489005
 20
176.586732726699
  0
LWPOLYLINE
  5
320
330
1F
100
AcDbEntity
  8
Sichtbare_Kanten_TC_020513_DIN_
  6
Continuous
 62
     7
100
AcDbPolyline
 90
        2
 70
     0
 43
0.5
 10
300.497917409064
 20
177.560831100885
 10
302.747917409064
 20
176.262754177808
  0
LWPOLYLINE
  5
321
330
1F
100
AcDbEntity
  8
Sichtbare_Kanten_TC_020513_DIN_
  6
Continuous
 62
     7
100
AcDbPolyline
 90
        2
 70
     0
 43
0.5
 10
299.935521489006
 20
172.045145721083
 10
299.935521489006
 20
177.236011506117
  0
LWPOLYLINE
  5
322
330
1F
100
AcDbEntity
  8
Sichtbare_Kanten_TC_020513_DIN_
  6
Continuous
 62
     7
100
AcDbPolyline
 90
        2
 70
     0
 43
0.5
 10
307.060521489006
 20
174.6405786136
 10
297.310521489006
 20
169.0155786136
  0
LWPOLYLINE
  5
323
330
1F
100
AcDbEntity
  8
Sichtbare_Kanten_TC_020513_DIN_
  6
Continuous
 62
     7
100
AcDbPolyline
 90
        2
 70
     0
 43
0.5
 10
297.310521489006
 20
180.2655786136
 10
307.060521489006
 20
174.6405786136
  0
LWPOLYLINE
  5
324
330
1F
100
AcDbEntity
  8
Sichtbare_Kanten_TC_020513_DIN_
  6
Continuous
 62
     7
100
AcDbPolyline
 90
        2
 70
     0
 43
0.5
 10
287.560521489005
 20
174.6405786136
 10
297.310521489006
 20
180.2655786136
  0
LWPOLYLINE
  5
325
330
1F
100
AcDbEntity
  8
Sichtbare_Kanten_TC_020513_DIN_
  6
Continuous
 62
     7
100
AcDbPolyline
 90
        2
 70
     0
 43
0.5
 10
297.310521489006
 20
169.0155786136
 10
287.560521489005
 20
174.6405786136
  0
LWPOLYLINE
  5
326
330
1F
100
AcDbEntity
  8
Sichtbare_Kanten_TC_020513_DIN_
  6
Continuous
 62
     7
100
AcDbPolyline
 90
        2
 70
     0
 43
0.5
 10
437.181845155411
 20
165.6405786136
 42
0.4142135623731
 10
438.181845155411
 20
164.6405786136
  0
LWPOLYLINE
  5
327
330
1F
100
AcDbEntity
  8
Sichtbare_Kanten_TC_020513_DIN_
  6
Continuous
 62
     7
100
AcDbPolyline
 90
        2
 70
     0
 43
0.5
 10
438.181845155411
 20
196.1405786136
 42
0.4142135623731
 10
437.181845155411
 20
195.1405786136
  0
LWPOLYLINE
  5
328
330
1F
100
AcDbEntity
  8
Sichtbare_Kanten_TC_020513_DIN_
  6
Continuous
 62
     7
100
AcDbPolyline
 90
        2
 70
     0
 43
0.5
 10
430.681845155399
 20
248.1405786136
 42
0.4142135623731
 10
428.681845155399
 20
246.1405786136
  0
LWPOLYLINE
  5
329
330
1F
100
AcDbEntity
  8
Sichtbare_Kanten_TC_020513_DIN_
  6
Continuous
 62
     7
100
AcDbPolyline
 90
        2
 70
     0
 43
0.5
 10
428.681845155399
 20
206.6405786136
 42
0.4142135623731
 10
430.681845155399
 20
204.6405786136
  0
LWPOLYLINE
  5
32A
330
1F
100
AcDbEntity
  8
Sichtbare_Kanten_TC_020513_DIN_
  6
Continuous
 62
     7
100
AcDbPolyline
 90
        2
 70
     0
 43
0.5
 10
433.707032361708
 20
188.252350045946
 42
0.33945425886331
 10
435.155921101141
 20
187.1405786136
  0
LWPOLYLINE
  5
32B
330
1F
100
AcDbEntity
  8
Sichtbare_Kanten_TC_020513_DIN_
  6
Continuous
 62
     7
100
AcDbPolyline
 90
        2
 70
     0
 43
0.5
 10
429.159693303952
 20
205.223250448736
 42
0.08294873678142
 10
429.023126703579
 20
205.523147140289
  0
LWPOLYLINE
  5
32C
330
1F
100
AcDbEntity
  8
Sichtbare_Kanten_TC_020513_DIN_
  6
Continuous
 62
     7
100
AcDbPolyline
 90
        2
 70
     0
 43
0.5
 10
440.181845155396
 20
230.132236000374
 42
1.87082869338695
 10
440.181845155396
 20
222.648921226826
  0
LWPOLYLINE
  5
32D
330
1F
100
AcDbEntity
  8
Sichtbare_Kanten_TC_020513_DIN_
  6
Continuous
 62
     7
100
AcDbPolyline
 90
        2
 70
     0
 43
0.5
 10
498.181845155396
 20
167.6405786136
 42
0.4142135623731
 10
497.181845155396
 20
168.6405786136
  0
LWPOLYLINE
  5
32E
330
1F
100
AcDbEntity
  8
Sichtbare_Kanten_TC_020513_DIN_
  6
Continuous
 62
     7
100
AcDbPolyline
 90
        2
 70
     0
 43
0.5
 10
455.681845155396
 20
168.6405786136
 42
0.4142135623731
 10
454.681845155396
 20
167.6405786136
  0
LWPOLYLINE
  5
32F
330
1F
100
AcDbEntity
  8
Sichtbare_Kanten_TC_020513_DIN_
  6
Continuous
 62
     7
100
AcDbPolyline
 90
        2
 70
     0
 43
0.5
 10
312.310521489006
 20
195.6405786136
 42
0.4142135623731
 10
311.810521489006
 20
196.1405786136
  0
LWPOLYLINE
  5
330
330
1F
100
AcDbEntity
  8
Sichtbare_Kanten_TC_020513_DIN_
  6
Continuous
 62
     7
100
AcDbPolyline
 90
        2
 70
     0
 43
0.5
 10
282.810521489006
 20
196.1405786136
 42
0.4142135623731
 10
282.310521489006
 20
195.6405786136
  0
LWPOLYLINE
  5
331
330
1F
100
AcDbEntity
  8
Sichtbare_Kanten_TC_020513_DIN_
  6
Continuous
 62
     7
100
AcDbPolyline
 90
        2
 70
     0
 43
0.5
 10
236.560521489006
 20
168.6405786136
 42
0.4142135623731
 10
237.560521489006
 20
169.6405786136
  0
LWPOLYLINE
  5
332
330
1F
100
AcDbEntity
  8
Sichtbare_Kanten_TC_020513_DIN_
  6
Continuous
 62
     7
100
AcDbPolyline
 90
        2
 70
     0
 43
0.5
 10
357.060521489006
 20
169.6405786136
 42
0.4142135623731
 10
358.060521489006
 20
168.6405786136
  0
LWPOLYLINE
  5
333
330
1F
100
AcDbEntity
  8
Sichtbare_Kanten_TC_020513_DIN_
  6
Continuous
 62
     7
100
AcDbPolyline
 90
        2
 70
     0
 43
0.5
 10
367.560521489006
 20
167.6405786136
 42
0.41421356237339
 10
366.560521489005
 20
168.6405786136
  0
LWPOLYLINE
  5
334
330
1F
100
AcDbEntity
  8
Sichtbare_Kanten_TC_020513_DIN_
  6
Continuous
 62
     7
100
AcDbPolyline
 90
        2
 70
     0
 43
0.5
 10
228.060521489006
 20
168.6405786136
 42
0.4142135623731
 10
227.060521489006
 20
167.6405786136
  0
LWPOLYLINE
  5
335
330
1F
100
AcDbEntity
  8
Sichtbare_Kanten_TC_020513_DIN_
  6
Continuous
 62
     7
100
AcDbPolyline
 90
        2
 70
     0
 43
0.5
 10
237.560521489006
 20
210.6405786136
 42
0.4142135623731
 10
243.560521489006
 20
204.6405786136
  0
LWPOLYLINE
  5
336
330
1F
100
AcDbEntity
  8
Sichtbare_Kanten_TC_020513_DIN_
  6
Continuous
 62
     7
100
AcDbPolyline
 90
        2
 70
     0
 43
0.5
 10
243.560521489006
 20
248.1405786136
 42
0.41421356237314
 10
237.560521489005
 20
242.1405786136
  0
LWPOLYLINE
  5
337
330
1F
100
AcDbEntity
  8
Sichtbare_Kanten_TC_020513_DIN_
  6
Continuous
 62
     7
100
AcDbPolyline
 90
        2
 70
     0
 43
0.5
 10
357.060521489006
 20
242.1405786136
 42
0.4142135623731
 10
351.060521489006
 20
248.1405786136
  0
LWPOLYLINE
  5
338
330
1F
100
AcDbEntity
  8
Sichtbare_Kanten_TC_020513_DIN_
  6
Continuous
 62
     7
100
AcDbPolyline
 90
        2
 70
     0
 43
0.5
 10
243.560521489006
 20
245.6405786136
 42
0.41421356237318
 10
240.060521489006
 20
242.1405786136
  0
LWPOLYLINE
  5
339
330
1F
100
AcDbEntity
  8
Sichtbare_Kanten_TC_020513_DIN_
  6
Continuous
 62
     7
100
AcDbPolyline
 90
        2
 70
     0
 43
0.5
 10
354.560521489006
 20
242.1405786136
 42
0.4142135623731
 10
351.060521489006
 20
245.6405786136
  0
LWPOLYLINE
  5
33A
330
1F
100
AcDbEntity
  8
Sichtbare_Kanten_TC_020513_DIN_
  6
Continuous
 62
     7
100
AcDbPolyline
 90
        2
 70
     0
 43
0.5
 10
240.060521489005
 20
210.6405786136
 42
0.41421356237309
 10
243.560521489006
 20
207.1405786136
  0
LWPOLYLINE
  5
33B
330
1F
100
AcDbEntity
  8
Sichtbare_Kanten_TC_020513_DIN_
  6
Continuous
 62
     7
100
AcDbPolyline
 90
        2
 70
     0
 43
0.5
 10
351.060521489006
 20
207.1405786136
 42
0.4142135623731
 10
354.560521489006
 20
210.6405786136
  0
LWPOLYLINE
  5
33C
330
1F
100
AcDbEntity
  8
Sichtbare_Kanten_TC_020513_DIN_
  6
Continuous
 62
     7
100
AcDbPolyline
 90
        2
 70
     0
 43
0.5
 10
351.060521489006
 20
204.6405786136
 42
0.4142135623731
 10
357.060521489006
 20
210.6405786136
  0
LWPOLYLINE
  5
33D
330
1F
100
AcDbEntity
  8
Sichtbare_Kanten_TC_020513_DIN_
  6
Continuous
 62
     7
100
AcDbPolyline
 90
        2
 70
     0
 43
0.5
 10
288.310521489006
 20
203.6405786136
 42
0.4142135623731
 10
287.310521489006
 20
204.6405786136
  0
LWPOLYLINE
  5
33E
330
1F
100
AcDbEntity
  8
Sichtbare_Kanten_TC_020513_DIN_
  6
Continuous
 62
     7
100
AcDbPolyline
 90
        2
 70
     0
 43
0.5
 10
307.310521489006
 20
204.6405786136
 42
0.4142135623731
 10
306.310521489006
 20
203.6405786136
  0
LWPOLYLINE
  5
33F
330
1F
100
AcDbEntity
  8
Sichtbare_Kanten_TC_020513_DIN_
  6
Continuous
 62
     7
100
AcDbPolyline
 90
        2
 70
     0
 43
0.5
 10
298.435521489006
 20
171.179761105698
 42
1.0
 10
299.185521489006
 20
171.179761105698
  0
LWPOLYLINE
  5
340
330
1F
100
AcDbEntity
  8
Sichtbare_Kanten_TC_020513_DIN_
  6
Continuous
 62
     7
100
AcDbPolyline
 90
        2
 70
     0
 43
0.5
 10
299.185521489006
 20
178.101396121501
 42
0.72714551713747
 10
298.506792629515
 20
178.321336522321
  0
LWPOLYLINE
  5
341
330
1F
100
AcDbEntity
  8
Sichtbare_Kanten_TC_020513_DIN_
  6
Continuous
 62
     7
100
AcDbPolyline
 90
        2
 70
     0
 43
0.5
 10
296.114250348496
 20
178.321336522321
 42
0.72714551713692
 10
295.435521489006
 20
178.101396121501
  0
LWPOLYLINE
  5
342
330
1F
100
AcDbEntity
  8
Sichtbare_Kanten_TC_020513_DIN_
  6
Continuous
 62
     7
100
AcDbPolyline
 90
        2
 70
     0
 43
0.5
 10
295.435521489005
 20
172.953799567237
 42
1.0
 10
296.185521489006
 20
172.953799567237
  0
LWPOLYLINE
  5
343
330
1F
100
AcDbEntity
  8
Sichtbare_Kanten_TC_020513_DIN_
  6
Continuous
 62
     7
100
AcDbPolyline
 90
        2
 70
     0
 43
0.5
 10
293.860521489006
 20
172.088414951852
 42
0.26803505952175
 10
294.048125568947
 20
171.763595357084
  0
LWPOLYLINE
  5
344
330
1F
100
AcDbEntity
  8
Sichtbare_Kanten_TC_020513_DIN_
  6
Continuous
 62
     7
100
AcDbPolyline
 90
        2
 70
     0
 43
0.5
 10
297.123125568947
 20
169.989556895545
 42
1.00000000000185
 10
297.497917409064
 20
170.639196085082
  0
LWPOLYLINE
  5
345
330
1F
100
AcDbEntity
  8
Sichtbare_Kanten_TC_020513_DIN_
  6
Continuous
 62
     7
100
AcDbPolyline
 90
        2
 70
     0
 43
0.5
 10
294.610521489006
 20
177.192742275348
 42
1.0
 10
293.860521489006
 20
177.192742275348
  0
LWPOLYLINE
  5
346
330
1F
100
AcDbEntity
  8
Sichtbare_Kanten_TC_020513_DIN_
  6
Continuous
 62
     7
100
AcDbPolyline
 90
        2
 70
     0
 43
0.5
 10
292.360521489005
 20
172.953799567237
 42
1.0
 10
293.1105214890059
 20
172.953799567237
  0
LWPOLYLINE
  5
347
330
1F
100
AcDbEntity
  8
Sichtbare_Kanten_TC_020513_DIN_
  6
Continuous
 62
     7
100
AcDbPolyline
 90
        2
 70
     0
 43
0.5
 10
293.110521489005
 20
176.327357659963
 42
1.0
 10
292.360521489005
 20
176.327357659963
  0
LWPOLYLINE
  5
348
330
1F
100
AcDbEntity
  8
Sichtbare_Kanten_TC_020513_DIN_
  6
Continuous
 62
     7
100
AcDbPolyline
 90
        2
 70
     0
 43
0.5
 10
299.935521489006
 20
172.045145721083
 42
0.57724345630739
 10
300.497917409064
 20
171.720326126315
  0
LWPOLYLINE
  5
349
330
1F
100
AcDbEntity
  8
Sichtbare_Kanten_TC_020513_DIN_
  6
Continuous
 62
     7
100
AcDbPolyline
 90
        2
 70
     0
 43
0.5
 10
302.747917409064
 20
173.018403049392
 42
1.00000000000129
 10
302.373125568947
 20
173.668042238928
  0
LWPOLYLINE
  5
34A
330
1F
100
AcDbEntity
  8
Sichtbare_Kanten_TC_020513_DIN_
  6
Continuous
 62
     7
100
AcDbPolyline
 90
        2
 70
     0
 43
0.5
 10
302.560521489006
 20
174.2655786136
 42
1.0
 10
302.560521489006
 20
175.0155786136
  0
LWPOLYLINE
  5
34B
330
1F
100
AcDbEntity
  8
Sichtbare_Kanten_TC_020513_DIN_
  6
Continuous
 62
     7
100
AcDbPolyline
 90
        2
 70
     0
 43
0.5
 10
302.373125568947
 20
175.613114988272
 42
1.00000000000129
 10
302.747917409064
 20
176.262754177808
  0
LWPOLYLINE
  5
34C
330
1F
100
AcDbEntity
  8
Sichtbare_Kanten_TC_020513_DIN_
  6
Continuous
 62
     7
100
AcDbPolyline
 90
        2
 70
     0
 43
0.5
 10
300.497917409064
 20
177.560831100885
 42
0.57724345630739
 10
299.935521489006
 20
177.236011506117
  0
LWPOLYLINE
  5
34D
330
1F
100
AcDbEntity
  8
Skizziergeometrie_TC_020513_DIN_
  6
Continuous
 62
     7
100
AcDbPolyline
 90
        3
 70
     0
 43
0.5
 10
121.51002310452
 20
299.461804779764
 42
1.0
 10
126.01002310452
 20
299.461804779764
 42
1.0
 10
121.51002310452
 20
299.461804779764
  0
LWPOLYLINE
  5
34E
330
1F
100
AcDbEntity
  8
Skizziergeometrie_TC_020513_DIN_
  6
Continuous
 62
     7
100
AcDbPolyline
 90
        3
 70
     0
 43
0.5
 10
121.51002310452
 20
169.461804779764
 42
1.0
 10
126.01002310452
 20
169.461804779764
 42
1.0
 10
121.51002310452
 20
169.461804779764
  0
LWPOLYLINE
  5
34F
330
1F
100
AcDbEntity
  8
Skizziergeometrie_TC_020513_DIN_
  6
Continuous
 62
     7
100
AcDbPolyline
 90
        3
 70
     0
 43
0.5
 10
89.5100231045204
 20
169.461804779764
 42
1.0
 10
94.0100231045204
 20
169.461804779764
 42
1.0
 10
89.5100231045204
 20
169.461804779764
  0
LWPOLYLINE
  5
350
330
1F
100
AcDbEntity
  8
Skizziergeometrie_TC_020513_DIN_
  6
Continuous
 62
     7
100
AcDbPolyline
 90
        3
 70
     0
 43
0.5
 10
89.5100231045204
 20
299.461804779764
 42
1.0
 10
94.0100231045204
 20
299.461804779764
 42
1.0
 10
89.5100231045204
 20
299.461804779764
  0
LWPOLYLINE
  5
351
330
1F
100
AcDbEntity
  8
Sichtbare_Kanten_TC_020513_DIN_
  6
Continuous
 62
     7
100
AcDbPolyline
 90
        3
 70
     0
 43
0.5
 10
332.310521489006
 20
182.1405786136
 42
1.0
 10
336.810521489006
 20
182.1405786136
 42
1.0
 10
332.310521489006
 20
182.1405786136
  0
LWPOLYLINE
  5
352
330
1F
100
AcDbEntity
  8
Sichtbare_Kanten_TC_020513_DIN_
  6
Continuous
 62
     7
100
AcDbPolyline
 90
        3
 70
     0
 43
0.5
 10
332.060521489006
 20
182.1405786136
 42
1.0
 10
337.060521489006
 20
182.1405786136
 42
1.0
 10
332.060521489006
 20
182.1405786136
  0
LWPOLYLINE
  5
353
330
1F
100
AcDbEntity
  8
Sichtbare_Kanten_TC_020513_DIN_
  6
Continuous
 62
     7
100
AcDbPolyline
 90
        3
 70
     0
 43
0.5
 10
330.560521489006
 20
182.1405786136
 42
1.0
 10
338.560521489006
 20
182.1405786136
 42
1.0
 10
330.560521489006
 20
182.1405786136
  0
LWPOLYLINE
  5
354
330
1F
100
AcDbEntity
  8
Sichtbare_Kanten_TC_020513_DIN_
  6
Continuous
 62
     7
100
AcDbPolyline
 90
        3
 70
     0
 43
0.5
 10
257.810521489006
 20
182.1405786136
 42
1.0
 10
262.310521489006
 20
182.1405786136
 42
1.0
 10
257.810521489006
 20
182.1405786136
  0
LWPOLYLINE
  5
355
330
1F
100
AcDbEntity
  8
Sichtbare_Kanten_TC_020513_DIN_
  6
Continuous
 62
     7
100
AcDbPolyline
 90
        3
 70
     0
 43
0.5
 10
257.560521489006
 20
182.1405786136
 42
1.0
 10
262.560521489006
 20
182.1405786136
 42
1.0
 10
257.560521489006
 20
182.1405786136
  0
LWPOLYLINE
  5
356
330
1F
100
AcDbEntity
  8
Sichtbare_Kanten_TC_020513_DIN_
  6
Continuous
 62
     7
100
AcDbPolyline
 90
        3
 70
     0
 43
0.5
 10
256.060521489006
 20
182.1405786136
 42
1.0
 10
264.060521489006
 20
182.1405786136
 42
1.0
 10
256.060521489006
 20
182.1405786136
  0
TEXT
  5
358
330
1F
100
AcDbEntity
  8
Symbole_ISO_
 62
     7
100
AcDbText
 10
276.0
 20
38.4999999403953
 30
0.0
 40
8.00000011920929
  1
CHI 24 CS
 41
0.74999995529652
  7
CONVERTER_14
100
AcDbText
  0
TEXT
  5
35A
330
1F
100
AcDbEntity
  8
Symbole_ISO_
 62
     7
100
AcDbText
 10
502.610914283349
 20
24.9999999999999
 30
0.0
 40
10.0
  1
1:2
 41
0.56249998509884
  7
CONVERTER_15
100
AcDbText
  0
TEXT
  5
35C
330
1F
100
AcDbEntity
  8
Symbole_ISO_
 62
     7
100
AcDbText
 10
276.0
 20
23.4999999403953
 30
0.0
 40
8.00000011920929
  1
bulkhead h. with pegs and cover
 41
0.625
  7
CONVERTER_16
100
AcDbText
  0
MTEXT
  5
35D
330
1F
100
AcDbEntity
  8
Symbole_TC_020513_DIN_
 62
     7
100
AcDbMText
 10
62.90146816049401
 20
327.816577079063
 30
0.0
 40
6.99999988079071
 41
0.0
 71
     1
 72
     1
  1
panel\Pcut\Pout
  7
CONVERTER_16
 73
     1
 44
1.0
  0
DIMENSION
  5
368
330
1F
100
AcDbEntity
  8
Bemaßungen_TC_020513_DIN_
100
AcDbDimension
  2
*D4
 10
155.7600231045205
 20
169.461804779764
 30
0.0
 11
147.6689179210246
 21
235.680263169942
 31
0.0
 70
    32
  1
130
 71
     5
 42
-1.0
 53
90.0
  3
ME10_DIM_10
100
AcDbAlignedDimension
 13
123.76002310452
 23
299.461804779764
 33
0.0
 14
123.76002310452
 24
169.461804779764
 34
0.0
 50
90.0
100
AcDbRotatedDimension
  0
DIMENSION
  5
373
330
1F
100
AcDbEntity
  8
Bemaßungen_TC_020513_DIN_
100
AcDbDimension
  2
*D5
 10
123.76002310452
 20
319.4618152153664
 30
0.0
 11
108.524579721164
 21
327.5529099632605
 31
0.0
 70
    32
  1
32
 71
     5
 42
-1.0
 53
0.00013888888889
  3
ME10_DIM_11
100
AcDbAlignedDimension
 13
91.7600231045204
 23
299.461804779764
 33
0.0
 14
123.76002310452
 24
299.461804779764
 34
0.0
100
AcDbRotatedDimension
  0
DIMENSION
  5
37E
330
1F
100
AcDbEntity
  8
Bemaßungen_TC_020513_DIN_
100
AcDbDimension
  2
*D6
 10
68.59833156223189
 20
178.4618047797639
 30
0.0
 11
61.24334455999883
 21
236.344958311089
 31
0.0
 70
    32
  1
112
 71
     5
 42
-1.0
 53
90.0
  3
ME10_DIM_12
100
AcDbAlignedDimension
 13
89.2600231045204
 23
290.461804779764
 33
0.0
 14
89.2600231045204
 24
178.461804779764
 34
0.0
 50
90.0
100
AcDbRotatedDimension
  0
DIMENSION
  5
389
330
1F
100
AcDbEntity
  8
Bemaßungen_TC_020513_DIN_
100
AcDbDimension
  2
*D7
 10
126.26002310452
 20
135.123506757655
 30
0.0
 11
108.488767988559
 21
142.5529099632605
 31
0.0
 70
    32
  1
37
 71
     5
 42
-1.0
 53
0.00013888888889
  3
ME10_DIM_13
100
AcDbAlignedDimension
 13
89.2600231045204
 23
178.461804779764
 33
0.0
 14
126.26002310452
 24
178.461804779764
 34
0.0
100
AcDbRotatedDimension
  0
DIMENSION
  5
394
330
1F
100
AcDbEntity
  8
Bemaßungen_TC_020513_DIN_
100
AcDbDimension
  2
*D8
 10
504.681845155404
 20
274.1405890492021
 30
0.0
 11
467.439239425524
 21
282.2269088994154
 31
0.0
 70
    32
  1
76
 71
     5
 42
-1.0
 53
0.00013888888889
  3
ME10_DIM_14
100
AcDbAlignedDimension
 13
428.681845155398
 23
242.1405786136
 33
0.0
 14
504.681845155404
 24
184.3905786136
 34
0.0
100
AcDbRotatedDimension
  0
DIMENSION
  5
39F
330
1F
100
AcDbEntity
  8
Bemaßungen_TC_020513_DIN_
100
AcDbDimension
  2
*D9
 10
550.1818451553937
 20
162.6405786136
 30
0.0
 11
542.0955148695786
 21
177.800087481267
 31
0.0
 70
    32
  1
29
 71
     5
 42
-1.0
 53
90.0
  3
ME10_DIM_15
100
AcDbAlignedDimension
 13
492.431845155398
 23
191.6405786136
 33
0.0
 14
494.181845155394
 24
162.6405786136
 34
0.0
 50
90.0
100
AcDbRotatedDimension
  0
DIMENSION
  5
3AC
330
1F
100
AcDbEntity
  8
Bemaßungen_TC_020513_DIN_
100
AcDbDimension
  2
*D10
 10
526.1818451553937
 20
162.6405786136
 30
0.0
 11
518.0955148695786
 21
166.19952813611
 31
0.0
 70
    32
  1
6
 71
     5
 42
-1.0
 53
90.0
  3
ME10_DIM_16
100
AcDbAlignedDimension
 13
494.181845155395
 23
168.6405786136
 33
0.0
 14
494.181845155394
 24
162.6405786136
 34
0.0
 50
90.0
100
AcDbRotatedDimension
  0
DIMENSION
  5
3B7
330
1F
100
AcDbEntity
  8
Bemaßungen_TC_020513_DIN_
100
AcDbDimension
  2
*D11
 10
499.181845155396
 20
134.1405994848168
 30
0.0
 11
478.653318552394
 21
143.9685825231116
 31
0.0
 70
    32
  1
45,5
 71
     5
 42
-1.0
 53
0.00013888888889
  3
ME10_DIM_17
100
AcDbAlignedDimension
 13
453.681845155396
 23
162.6405786136
 33
0.0
 14
499.181845155396
 24
162.6405786136
 34
0.0
100
AcDbRotatedDimension
  0
DIMENSION
  5
3C2
330
1F
100
AcDbEntity
  8
Bemaßungen_TC_020513_DIN_
100
AcDbDimension
  2
*D12
 10
368.5605214890051
 20
134.1406047026236
 30
0.0
 11
300.153018078364
 21
144.014644844519
 31
0.0
 70
    32
  1
142,5
 71
     5
 42
-1.0
 53
0.00013888888889
  3
ME10_DIM_18
100
AcDbAlignedDimension
 13
226.060521489006
 23
162.6405786136
 33
0.0
 14
368.560521489005
 24
166.1405786136
 34
0.0
100
AcDbRotatedDimension
  0
ENDSEC
  0
SECTION
  2
OBJECTS
  0
DICTIONARY
  5
C
330
0
100
AcDbDictionary
281
     1
  3
ACAD_GROUP
350
D
  3
ACAD_LAYOUT
350
1A
  3
ACAD_MLEADERSTYLE
350
3C4
  3
ACAD_MLINESTYLE
350
17
  3
ACAD_PLOTSETTINGS
350
19
  3
ACAD_PLOTSTYLENAME
350
E
  3
ACAD_TABLESTYLE
350
3C3
  3
ACAD_VISUALSTYLE
350
2A
  0
DICTIONARY
  5
D
102
{ACAD_REACTORS
330
C
102
}
330
C
100
AcDbDictionary
281
     1
  0
DICTIONARY
  5
1A
102
{ACAD_REACTORS
330
C
102
}
330
C
100
AcDbDictionary
281
     1
  3
Layout1
350
1E
  3
Layout2
350
26
  3
Model
350
22
  0
DICTIONARY
  5
3C4
102
{ACAD_REACTORS
330
C
102
}
330
C
100
AcDbDictionary
281
     1
  0
DICTIONARY
  5
17
102
{ACAD_REACTORS
330
C
102
}
330
C
100
AcDbDictionary
281
     1
  3
Standard
350
18
  0
DICTIONARY
  5
19
102
{ACAD_REACTORS
330
C
102
}
330
C
100
AcDbDictionary
281
     1
  0
ACDBDICTIONARYWDFLT
  5
E
102
{ACAD_REACTORS
330
C
102
}
330
C
100
AcDbDictionary
281
     1
  3
Normal
350
F
100
AcDbDictionaryWithDefault
340
F
  0
DICTIONARY
  5
3C3
102
{ACAD_REACTORS
330
C
102
}
330
C
100
AcDbDictionary
281
     1
  0
DICTIONARY
  5
2A
102
{ACAD_REACTORS
330
C
102
}
330
C
100
AcDbDictionary
281
     1
  3
2dWireframe
350
2F
  3
3D Hidden
350
31
  3
3dWireframe
350
30
  3
Basic
350
32
  3
Brighten
350
36
  3
ColorChange
350
3A
  3
Conceptual
350
34
  3
Dim
350
35
  3
Facepattern
350
39
  3
Flat
350
2B
  3
FlatWithEdges
350
2C
  3
Gouraud
350
2D
  3
GouraudWithEdges
350
2E
  3
Linepattern
350
38
  3
Realistic
350
33
  3
Thicken
350
37
  0
LAYOUT
  5
1E
102
{ACAD_REACTORS
330
1A
102
}
330
1A
100
AcDbPlotSettings
  1

  2
none_device
  4

  6

 40
0.0
 41
0.0
 42
0.0
 43
0.0
 44
0.0
 45
0.0
 46
0.0
 47
0.0
 48
0.0
 49
0.0
140
0.0
141
0.0
142
1.0
143
1.0
 70
   688
 72
     0
 73
     0
 74
     5
  7

 75
    16
147
1.0
148
0.0
149
0.0
100
AcDbLayout
  1
Layout1
 70
     1
 71
     1
 10
0.0
 20
0.0
 11
12.0
 21
9.0
 12
0.0
 22
0.0
 32
0.0
 14
1.00000000000000E+20
 24
1.00000000000000E+20
 34
1.00000000000000E+20
 15
-1.00000000000000E+20
 25
-1.00000000000000E+20
 35
-1.00000000000000E+20
146
0.0
 13
0.0
 23
0.0
 33
0.0
 16
1.0
 26
0.0
 36
0.0
 17
0.0
 27
1.0
 37
0.0
 76
     0
330
1B
  0
LAYOUT
  5
26
102
{ACAD_REACTORS
330
1A
102
}
330
1A
100
AcDbPlotSettings
  1

  2
none_device
  4

  6

 40
0.0
 41
0.0
 42
0.0
 43
0.0
 44
0.0
 45
0.0
 46
0.0
 47
0.0
 48
0.0
 49
0.0
140
0.0
141
0.0
142
1.0
143
1.0
 70
   688
 72
     0
 73
     0
 74
     5
  7

 75
    16
147
1.0
148
0.0
149
0.0
100
AcDbLayout
  1
Layout2
 70
     1
 71
     2
 10
0.0
 20
0.0
 11
0.0
 21
0.0
 12
0.0
 22
0.0
 32
0.0
 14
0.0
 24
0.0
 34
0.0
 15
0.0
 25
0.0
 35
0.0
146
0.0
 13
0.0
 23
0.0
 33
0.0
 16
1.0
 26
0.0
 36
0.0
 17
0.0
 27
1.0
 37
0.0
 76
     0
330
23
  0
LAYOUT
  5
22
102
{ACAD_REACTORS
330
1A
102
}
330
1A
100
AcDbPlotSettings
  1

  2
none_device
  4

  6

 40
0.0
 41
0.0
 42
0.0
 43
0.0
 44
0.0
 45
0.0
 46
0.0
 47
0.0
 48
0.0
 49
0.0
140
0.0
141
0.0
142
1.0
143
1.0
 70
  1712
 72
     0
 73
     0
 74
     0
  7

 75
     0
147
1.0
148
0.0
149
0.0
100
AcDbLayout
  1
Model
 70
     1
 71
     0
 10
0.0
 20
0.0
 11
12.0
 21
9.0
 12
0.0
 22
0.0
 32
0.0
 14
19.49999999999996
 24
19.4999999999999
 34
0.0
 15
574.5
 25
420.5
 35
0.0
146
0.0
 13
0.0
 23
0.0
 33
0.0
 16
1.0
 26
0.0
 36
0.0
 17
0.0
 27
1.0
 37
0.0
 76
     0
330
1F
331
29
  0
MLINESTYLE
  5
18
102
{ACAD_REACTORS
330
17
102
}
330
17
100
AcDbMlineStyle
  2
Standard
 70
     0
  3

 62
   256
 51
90.0
 52
90.0
 71
     2
 49
0.5
 62
   256
  6
BYLAYER
 49
-0.5
 62
   256
  6
BYLAYER
  0
ACDBPLACEHOLDER
  5
F
102
{ACAD_REACTORS
330
E
102
}
330
E
  0
VISUALSTYLE
  5
2F
102
{ACAD_REACTORS
330
2A
102
}
330
2A
100
AcDbVisualStyle
  2
2dWireframe
 70
     4
 71
     0
 72
     2
 73
     0
 90
        0
 40
-0.6
 41
-30.0
 62
     5
 63
     7
 74
     1
 91
        4
 64
     7
 65
   257
 75
     1
175
     1
 42
1.0
 92
        0
 66
   257
 43
1.0
 76
     1
 77
     6
 78
     2
 67
     7
 79
     5
170
     0
171
     0
290
     0
174
     0
 93
        1
 44
0.0
173
     0
291
     0
 45
0.0
1001
ACAD
1000
AcDbSavedByObjectVersion
1070
     0
  0
VISUALSTYLE
  5
31
102
{ACAD_REACTORS
330
2A
102
}
330
2A
100
AcDbVisualStyle
  2
3D Hidden
 70
     6
 71
     1
 72
     2
 73
     2
 90
        0
 40
-0.6
 41
-30.0
 62
     5
 63
     7
 74
     2
 91
        2
 64
     7
 65
   257
 75
     2
175
     1
 42
40.0
 92
        0
 66
   257
 43
1.0
 76
     1
 77
     6
 78
     2
 67
     7
 79
     3
170
     0
171
     0
290
     0
174
     0
 93
        1
 44
0.0
173
     0
291
     0
 45
0.0
1001
ACAD
1000
AcDbSavedByObjectVersion
1070
     0
  0
VISUALSTYLE
  5
30
102
{ACAD_REACTORS
330
2A
102
}
330
2A
100
AcDbVisualStyle
  2
3dWireframe
 70
     5
 71
     0
 72
     2
 73
     0
 90
        0
 40
-0.6
 41
-30.0
 62
     5
 63
     7
 74
     1
 91
        4
 64
     7
 65
   257
 75
     1
175
     1
 42
1.0
 92
        0
 66
   257
 43
1.0
 76
     1
 77
     6
 78
     2
 67
     7
 79
     5
170
     0
171
     0
290
     0
174
     0
 93
        1
 44
0.0
173
     0
291
     0
 45
0.0
1001
ACAD
1000
AcDbSavedByObjectVersion
1070
     0
  0
VISUALSTYLE
  5
32
102
{ACAD_REACTORS
330
2A
102
}
330
2A
100
AcDbVisualStyle
  2
Basic
 70
     7
 71
     1
 72
     0
 73
     1
 90
        0
 40
-0.6
 41
-30.0
 62
     5
 63
     7
 74
     0
 91
        4
 64
     7
 65
   257
 75
     1
175
     1
 42
1.0
 92
        8
 66
     7
 43
1.0
 76
     1
 77
     6
 78
     2
 67
     7
 79
     5
170
     0
171
     0
290
     0
174
     0
 93
        1
 44
0.0
173
     0
291
     1
 45
0.0
1001
ACAD
1000
AcDbSavedByObjectVersion
1070
     0
  0
VISUALSTYLE
  5
36
102
{ACAD_REACTORS
330
2A
102
}
330
2A
100
AcDbVisualStyle
  2
Brighten
 70
    12
 71
     2
 72
     2
 73
     0
 90
        0
 40
-0.6
 41
-30.0
 62
     5
 63
     7
 74
     1
 91
        4
 64
     7
 65
   257
 75
     1
175
     1
 42
1.0
 92
        8
 66
     7
 43
1.0
 76
     1
 77
     6
 78
     2
 67
     7
 79
     5
170
     0
171
     0
290
     0
174
     0
 93
        1
 44
50.0
173
     0
291
     1
 45
0.0
1001
ACAD
1000
AcDbSavedByObjectVersion
1070
     0
  0
VISUALSTYLE
  5
3A
102
{ACAD_REACTORS
330
2A
102
}
330
2A
100
AcDbVisualStyle
  2
ColorChange
 70
    16
 71
     2
 72
     2
 73
     3
 90
        0
 40
-0.6
 41
-30.0
 62
     5
 63
     8
 74
     1
 91
        4
 64
     7
 65
   257
 75
     1
175
     1
 42
1.0
 92
        8
 66
     8
 43
1.0
 76
     1
 77
     6
 78
     2
 67
     7
 79
     5
170
     0
171
     0
290
     0
174
     0
 93
        1
 44
0.0
173
     0
291
     1
 45
0.0
1001
ACAD
1000
AcDbSavedByObjectVersion
1070
     0
  0
VISUALSTYLE
  5
34
102
{ACAD_REACTORS
330
2A
102
}
330
2A
100
AcDbVisualStyle
  2
Conceptual
 70
     9
 71
     3
 72
     2
 73
     0
 90
        0
 40
-0.6
 41
-30.0
 62
     5
 63
     7
 74
     2
 91
        2
 64
     7
 65
   257
 75
     1
175
     1
 42
40.0
 92
        8
 66
     7
 43
1.0
 76
     1
 77
     6
 78
     2
 67
     7
 79
     3
170
     0
171
     0
290
     0
174
     0
 93
        1
 44
0.0
173
     0
291
     0
 45
0.0
1001
ACAD
1000
AcDbSavedByObjectVersion
1070
     0
  0
VISUALSTYLE
  5
35
102
{ACAD_REACTORS
330
2A
102
}
330
2A
100
AcDbVisualStyle
  2
Dim
 70
    11
 71
     2
 72
     2
 73
     0
 90
        0
 40
-0.6
 41
-30.0
 62
     5
 63
     7
 74
     1
 91
        4
 64
     7
 65
   257
 75
     1
175
     1
 42
1.0
 92
        8
 66
     7
 43
1.0
 76
     1
 77
     6
 78
     2
 67
     7
 79
     5
170
     0
171
     0
290
     0
174
     0
 93
        1
 44
-50.0
173
     0
291
     1
 45
0.0
1001
ACAD
1000
AcDbSavedByObjectVersion
1070
     0
  0
VISUALSTYLE
  5
39
102
{ACAD_REACTORS
330
2A
102
}
330
2A
100
AcDbVisualStyle
  2
Facepattern
 70
    15
 71
     2
 72
     2
 73
     0
 90
        0
 40
-0.6
 41
-30.0
 62
     5
 63
     7
 74
     1
 91
        4
 64
     7
 65
   257
 75
     1
175
     1
 42
1.0
 92
        8
 66
     7
 43
1.0
 76
     1
 77
     6
 78
     2
 67
     7
 79
     5
170
     0
171
     0
290
     0
174
     0
 93
        1
 44
0.0
173
     0
291
     1
 45
0.0
1001
ACAD
1000
AcDbSavedByObjectVersion
1070
     0
  0
VISUALSTYLE
  5
2B
102
{ACAD_REACTORS
330
2A
102
}
330
2A
100
AcDbVisualStyle
  2
Flat
 70
     0
 71
     2
 72
     1
 73
     1
 90
        2
 40
-0.6
 41
30.0
 62
     5
 63
     7
 74
     0
 91
        4
 64
     7
 65
   257
 75
     1
175
     1
 42
1.0
 92
        8
 66
     7
 43
1.0
 76
     1
 77
     6
 78
     2
 67
     7
 79
     5
170
     0
171
     0
290
     0
174
     0
 93
       13
 44
0.0
173
     0
291
     1
 45
0.0
1001
ACAD
1000
AcDbSavedByObjectVersion
1070
     0
  0
VISUALSTYLE
  5
2C
102
{ACAD_REACTORS
330
2A
102
}
330
2A
100
AcDbVisualStyle
  2
FlatWithEdges
 70
     1
 71
     2
 72
     1
 73
     1
 90
        2
 40
-0.6
 41
30.0
 62
     5
 63
     7
 74
     1
 91
        4
 64
     7
 65
   257
 75
     1
175
     1
 42
1.0
 92
        0
 66
   257
 43
1.0
 76
     1
 77
     6
 78
     2
 67
     7
 79
     5
170
     0
171
     0
290
     0
174
     0
 93
       13
 44
0.0
173
     0
291
     1
 45
0.0
1001
ACAD
1000
AcDbSavedByObjectVersion
1070
     0
  0
VISUALSTYLE
  5
2D
102
{ACAD_REACTORS
330
2A
102
}
330
2A
100
AcDbVisualStyle
  2
Gouraud
 70
     2
 71
     2
 72
     2
 73
     1
 90
        2
 40
-0.6
 41
30.0
 62
     5
 63
     7
 74
     0
 91
        4
 64
     7
 65
   257
 75
     1
175
     1
 42
1.0
 92
        0
 66
     7
 43
1.0
 76
     1
 77
     6
 78
     2
 67
     7
 79
     5
170
     0
171
     0
290
     0
174
     0
 93
       13
 44
0.0
173
     0
291
     1
 45
0.0
1001
ACAD
1000
AcDbSavedByObjectVersion
1070
     0
  0
VISUALSTYLE
  5
2E
102
{ACAD_REACTORS
330
2A
102
}
330
2A
100
AcDbVisualStyle
  2
GouraudWithEdges
 70
     3
 71
     2
 72
     2
 73
     1
 90
        2
 40
-0.6
 41
30.0
 62
     5
 63
     7
 74
     1
 91
        4
 64
     7
 65
   257
 75
     1
175
     1
 42
1.0
 92
        0
 66
   257
 43
1.0
 76
     1
 77
     6
 78
     2
 67
     7
 79
     5
170
     0
171
     0
290
     0
174
     0
 93
       13
 44
0.0
173
     0
291
     1
 45
0.0
1001
ACAD
1000
AcDbSavedByObjectVersion
1070
     0
  0
VISUALSTYLE
  5
38
102
{ACAD_REACTORS
330
2A
102
}
330
2A
100
AcDbVisualStyle
  2
Linepattern
 70
    14
 71
     2
 72
     2
 73
     0
 90
        0
 40
-0.6
 41
-30.0
 62
     5
 63
     7
 74
     1
 91
        4
 64
     7
 65
   257
 75
     7
175
     7
 42
1.0
 92
        8
 66
     7
 43
1.0
 76
     1
 77
     6
 78
     2
 67
     7
 79
     5
170
     0
171
     0
290
     0
174
     0
 93
        1
 44
0.0
173
     0
291
     1
 45
0.0
1001
ACAD
1000
AcDbSavedByObjectVersion
1070
     0
  0
VISUALSTYLE
  5
33
102
{ACAD_REACTORS
330
2A
102
}
330
2A
100
AcDbVisualStyle
  2
Realistic
 70
     8
 71
     2
 72
     2
 73
     0
 90
        0
 40
-0.6
 41
-30.0
 62
     5
 63
     7
 74
     1
 91
        0
 64
     7
 65
   257
 75
     1
175
     1
 42
1.0
 92
        8
 66
     8
 43
1.0
 76
     1
 77
     6
 78
     2
 67
     7
 79
     5
170
     0
171
     0
290
     0
174
     0
 93
       13
 44
0.0
173
     0
291
     0
 45
0.0
1001
ACAD
1000
AcDbSavedByObjectVersion
1070
     0
  0
VISUALSTYLE
  5
37
102
{ACAD_REACTORS
330
2A
102
}
330
2A
100
AcDbVisualStyle
  2
Thicken
 70
    13
 71
     2
 72
     2
 73
     0
 90
        0
 40
-0.6
 41
-30.0
 62
     5
 63
     7
 74
     1
 91
        4
 64
     7
 65
   257
 75
     1
175
     1
 42
1.0
 92
       12
 66
     7
 43
1.0
 76
     1
 77
     6
 78
     2
 67
     7
 79
     5
170
     0
171
     0
290
     0
174
     0
 93
        1
 44
0.0
173
     0
291
     1
 45
0.0
1001
ACAD
1000
AcDbSavedByObjectVersion
1070
     0
  0
ENDSEC
  0
EOF
